Tori Amos - Native Invader (Deluxe Edition) (2017) CD Rip
MP3 FLAC WMA APE HD

Tori Amos - Native Invader (Deluxe Edition) (2017) CD Rip

Artist: Tori Amos
Title: Native Invader
Year Of Release: 2017-09-08
Label: Decca / Universal Music (EU)
Genre: Pop/Rock, Alternative/Indie Rock, Electronica
Quality: FLAC (tracks+.cue+.log)
Total Time: 01:08:07
Total Size: 378,57 Mb (Full Scans~149,86 Mb)
WebSite:

"Native Invader" is the fifteenth studio album by American singer/songwriter Tori Amos. It was released on September 8, 2017, through Decca Records. Its lead single, "Cloud Riders", was released on July 27, 2017. ~Wikipedia~
A decade after the release of her most politically outspoken album, a reinvigorated Tori Amos once again takes aim at the state of the world on her 15th album, Native Invader. One of Amos' tightest and most digestible efforts, it's a standout in her late-era catalog, featuring instant classics like the epic "Reindeer King" and the surprising thrill "Up the Creek." Much like spiritual sisters American Doll Posse and Scarlet's Walk, Native Invader was influenced by political turmoil on American soil; this time, following the outcome of the 2016 presidential election. However, instead of directing her barbs at an obvious target like she did on "Yo George," she veers her attention toward nature and the land. On the smoky "Broken Arrow," Amos is defiant and persistent, calling out the elected in Washington by asking "Are we emancipators or oppressors/Of Lady Liberty?" before warning that "we the people...will be watching over you." On the urgent, onomatopoeic "Bang," she conjures the elements in a pro-immigrant proclamation that reminds listeners that -- no matter which country they're from -- we're all "molecular machines" made of the same star stuff. At the dramatic close, Amos runs through a list of elements in an updated "Datura" of the periodic table. It's a wild and inspired moment sure to please fans of the singer's eccentricities. The undulating "Bats" invokes mythical water beings to help "fight to save the fate of our waves," while "Benjamin" holds nothing back, branding the fossil fuel industry and "the men on the hill" as "those pimps in Washington...selling the rape of America." When Amos steps aside from the sociopolitical, she returns listeners to another kind of turmoil: relationship drama. Like on Unrepentant Geraldines and Abnormally Attracted to Sin, Amos' marriage to husband Mark Hawley is examined in raw detail on songs like "Wings," "Breakaway," and "Chocolate Song," where she laments "we used to be happy." Hawley's guitar also plays an important role on the album -- like on American Doll Posse -- whether it's the wah-wah on "Broken Arrow" or the sprawling solo on the yearning "Wildwood." Romantic heartbreak aside, the most devastating personal moment arrives on "Mary's Eyes," about Amos' mother, who was left unable to communicate after a stroke. After singing so many songs about saving Mother Nature, in the end, she simply wants to save her own. It's a heartbreaking plea that expands on the sentiments from "The Beekeeper" and closes the album on a somber note. Native Invader stands tall with its own vital voice and energy, alluding to beloved touchstones from throughout Amos' oeuvre while remaining fully of its time. ~Review by Neil Z. Yeung~
Release of this album/CD: 2017, September, 8 [CD Decca / Universal Music (EU), Cat.# 028948155873 / UPC: 028948155873]
(p)(c) 2017 Tori Amos under exclusive licence to Decca, a Devision of Universal Music Operations Limited.
Made in the EU

Note: Release in hardback book packaging, with some copies bearing a 'Made in Czech Republic' sticker over the shrinkwrap on the back.

Credits:

Engineer [Assistant] – Adam Spry
Guitar – Mac Aladdin
Mastered By – Jon Astley
Producer, Written-By, Piano, Keyboards, Vocals – Tori Amos
Programmed By [Synth Programming], Keyboards [Additional] – John Philip Shenale (tracks: 1, 13)
Programmed By, Instrumentation By [Additional] – Mark, Tori
Recorded By, Mixed By – Marcel van Limbeek, Mark Hawley
Vocals – Tash (tracks: 5)


Tracklist:

01. Reindeer King (07:07)
02. Wings (04:09)
03. Broken Arrow (05:21)
04. Cloud Riders (05:23)
05. Up The Creek (03:22)
06. Breakaway (04:37)
07. Wildwood (04:42)
08. Chocolate Song (04:42)
09. Bang (06:12)
10. Climb (04:03)
11. Bats (04:18)
12. Benjamin (02:44)
13. Mary's Eyes (05:16)
14. Upside Down 2 (03:24)
15. Russia (02:47)

--------------------------------------------------------------------------------
Analyzed: The Rolling Stones / Dirty Work
--------------------------------------------------------------------------------

DR Peak RMS Duration Track
--------------------------------------------------------------------------------
DR13 -0.20 dB -14.74 dB 4:46 01-One Hit (To The Body)
DR13 -0.20 dB -14.20 dB 3:10 02-Fight
DR14 -0.20 dB -15.76 dB 3:26 03-Harlem Shuffle
DR14 -0.20 dB -14.89 dB 3:53 04-Hold Back
DR15 -0.20 dB -16.20 dB 3:13 05-Too Rude
DR12 -0.20 dB -13.76 dB 4:33 06-Winning Ugly
DR15 -0.20 dB -17.37 dB 4:01 07-Back To Zero
DR12 -0.20 dB -14.36 dB 3:54 08-Dirty Work
DR13 -0.20 dB -14.13 dB 3:21 09-Had It With You
DR14 -0.20 dB -16.49 dB 5:14 10-Sleep Tonight
DR11 -9.43 dB -25.74 dB 0:33 11-Key To The Highway (Excerpt)
--------------------------------------------------------------------------------

Number of tracks: 11
Official DR value: DR13

Samplerate: 44100 Hz
Channels: 2
Bits per sample: 16
Bitrate: 893 kbps
Codec: FLAC
================================================================================


FLAC DOWNLOAD ~ Download FLAC


password: BlondStyle

SCANS DOWNLOAD ~ Download SCANS


Alternative download links

Turbobit Turbobit

Related MP3 FLAC to Tori Amos - Native Invader (Deluxe Edition) (2017) CD Rip
Feedback
All rights reserved.
WEBBG.com © 2000-2018