Norman Connors - Valentine Love: The BuddahArista Anthology 2CD (2017)
MP3 FLAC WMA APE HD

Norman Connors - Valentine Love: The BuddahArista Anthology 2CD (2017)

Artist: Norman Connors
Title: Valentine Love: The Buddah/Arista Anthology
Year Of Release: 2017-03-10
Label: SoulMusic Records (UK)
Genre: R&B, Jazz, Jazz-Funk, Soul, Urban
Quality: FLAC (tracks+.cue+.log) | MP3 320kbps
Total Time: 02:34:23
Total Size: 1,08 Gb | 365,20 Mb (Full Scans-375,66 Mb)
WebSite:

SoulMusic Records is very proud to present 'Valentine Love: The Buddah/Arista Anthology', a musically sumptuous 2-CD set by renowned musician and producer, the multi-talented Norman Connors. Covering almost a decade (1972-1981), the 34 tracks include all of Norman's ten US charted singles; a rare 12" mix of the 1977 cut, 'Captain Connors'; two tracks from the album, 'Norman Connors Presents Aquarian Dream' (including one, 'Once Again', featuring Gloria Jones); key album cuts, 'Dindi' and 'Maiden Voyage' and a musical feast of tracks featuring a number of artists who first gained prominence through their recordings with Norman such as Jean Carn, Michael Henderson, Phyllis Hyman, Prince Phillip Mitchell, Eleanore Mills, Al Johnson, Adaritha, Glenn Jones and Beau Williams. Before he became known as a premier music man with 'golden ears' (for his discovery of so many great vocalists), the Philadelphia drummer served his musical apprenticeship with John Coltrane and Pharaoh Sanders before embarking on his own recording career in 1972. By 1975, Connors had achieved his first chart breakthrough thanks to the soulful pairing of Carn and Henderson on the now-classic 'Valentine Love.' Extensive liner notes by renowned UK writer Charles Waring including 2017 numerous quotes from Norman himself, longtime band members Jacques Burvick and Kenneth Nash and others.
Release of this 2CD Set: 2017, March, 10 [SoulMusic Records (UK), Cat.# SMCR 5152D / UPC: 5013929085237]
All tracks (p) 1972-1981 Sony Music Entertainment
Issued under licence from Sony Music Entertainment UK Limited
This compilation (p) 2017 Sony Music Entertainment
(c) 2017 SoulMusic Records
Marketed and Distributed by Cherry Red Records Ltd.
Made in the U.K.


Tracklist:

Disc 1

01. Slew Foot
02. Valentine Love (feat. Michael Henderson & Jean Carn)
03. Saturday Night Special
04. Dindi (feat. Jean Carn)
05. Maiden Voyage
06. We Both Need Each Other (feat. Phyllis Hyman & Michael Henderson)
07. So Much Love
08. You Are My Starship (feat. Michael Henderson)
09. Betcha By Golly Wow (feat. Phyllis Hyman)
10. Kwasi
11. Aquarian Dream: Phoenix
12. Aquarian Dream: Once Again (feat. Gloria Jones)
13. Once I'Ve Been There (feat. Prince Phillip Mitchell)
14. Romantic Journey
15. For You Everything (feat. Prince Philip Mitchell & Eleanore Mills)
16. Give The Drummer Some

--------------------------------------------------------------------------------
Analyzed: Norman Connors / Valentine Love: The Buddah / Arista Anthology
--------------------------------------------------------------------------------

DR Peak RMS Duration Track
--------------------------------------------------------------------------------
DR11 -1.07 dB -13.70 dB 3:18 01-SLEW FOOT
DR11 -1.08 dB -13.72 dB 3:53 02-VALENTINE LOVE (Featuring Michael Henderson & Jean Carn)
DR12 -1.10 dB -13.71 dB 4:35 03-SATURDAY NIGHT SPECIAL
DR10 -1.10 dB -13.75 dB 7:03 04-DINDI (Featuring Jean Carn)
DR10 -1.10 dB -13.71 dB 6:54 05-MAIDEN VOYAGE
DR11 -1.09 dB -13.91 dB 4:05 06-WE BOTH NEED EACH OTHER (Featuring Phyllis Hyman and Michael Henderson)
DR9 -1.10 dB -13.88 dB 2:46 07-SO MUCH LOVE
DR11 -1.04 dB -14.10 dB 4:33 08-YOU ARE MY STARSHIP (Featuring Michael Henderson)
DR11 -1.07 dB -13.72 dB 6:24 09-BETCHA BY GOLLY WOW (Featuring Phyllis Hyman)
DR10 -1.09 dB -13.92 dB 3:45 10-KWASI
DR11 -0.38 dB -12.71 dB 4:06 11-AQUARIAN DREAM: PHOENIX
DR10 -0.43 dB -13.19 dB 4:23 12-AQUARIAN DREAM: ONCE AGAIN (Featuring Gloria Jones)
DR11 -1.10 dB -13.73 dB 5:47 13-ONCE I´VE BEEN THERE (Featuring Prince Phillip Mitchell)
DR10 -1.06 dB -13.91 dB 5:26 14-ROMANTIC JOURNEY
DR10 -1.46 dB -12.69 dB 5:57 15-FOR YOU EVERYTHING (Featuring Prince Philip Mitchell and Eleanore Mills)
DR9 -1.05 dB -14.26 dB 2:29 16-GIVE THE DRUMMER SOME
--------------------------------------------------------------------------------

Number of tracks: 16
Official DR value: DR10

Samplerate: 44100 Hz
Channels: 2
Bits per sample: 16
Bitrate: 905 kbps
Codec: FLAC
================================================================================
Disc 2

01. Captain Connors (12" Version) (with the Starship Orchestra)
02. Say You Love Me (with the Starship Orchestra)
03. This Is Your Life (feat. Eleanore Mills)
04. Stella
05. Wouldn't You Like to See (with the Starship Orchestra feat. Eleanor Mills)
06. Listen (with the Starship Orchestra feat. James Robinson)
07. Your Love (feat. Al Johnson)
08. Disco Land
09. Handle Me Gently (feat. Miss Adaritha)
10. Invitation (feat. Miss Adaritha)
11. Be There in the Morning (feat. Miss Adaritha)
12. Take It to the Limit (feat. Adaritha)
13. You Bring Me Joy (feat. Adaritha)
14. I Don't Need Nobody Else (feat. Al Johnson)
15. Melancholy Fire (feat. Glenn Jones)
16. You've Been On My Mind (feat. Adaritha)
17. She's Gone (feat. Beau Williams)
18. Mr. C

--------------------------------------------------------------------------------
Analyzed: Norman Connors / Valentine Love: The Buddah / Arista Anthology
--------------------------------------------------------------------------------

DR Peak RMS Duration Track
--------------------------------------------------------------------------------
DR12 -1.08 dB -13.82 dB 7:27 01-CAPTAIN CONNORS (12” VERSION) - Norman Connors & The Starship Orchestra
DR11 -1.10 dB -13.76 dB 4:37 02-SAY YOU LOVE ME - Norman Connors & The Starship Orchestra
DR9 -1.10 dB -13.84 dB 4:15 03-THIS IS YOUR LIFE (Featuring Eleanore Mills)
DR11 -1.10 dB -13.80 dB 3:20 04-STELLA
DR11 -1.09 dB -13.72 dB 3:44 05-WOULDN'T YOU LIKE TO SEE (Featuring Eleanor Mills) - Norman Connors & The Starship Orchestra
DR11 -1.09 dB -13.75 dB 3:53 06-LISTEN (Featuring James Robinson) - Norman Connors & The Starship Orchestra
DR11 -1.09 dB -13.71 dB 5:06 07-YOUR LOVE (Featuring Al Johnson)
DR12 -1.02 dB -13.68 dB 4:36 08-DISCO LAND
DR11 -1.05 dB -13.81 dB 3:50 09-HANDLE ME GENTLY (Featuring Miss Adaritha)
DR10 -1.06 dB -13.77 dB 4:09 10-INVITATION (Featuring Miss Adaritha)
DR11 -1.10 dB -13.72 dB 4:16 11-BE THERE IN THE MORNING (Featuring Miss Adaritha)
DR11 -1.10 dB -13.73 dB 4:22 12-TAKE IT TO THE LIMIT (Featuring Adaritha)
DR10 -1.06 dB -13.92 dB 3:38 13-YOU BRING ME JOY (Featuring Adaritha)
DR11 -0.26 dB -12.77 dB 3:54 14-I DON'T NEED NOBODY ELSE (Featuring Al Johnson)
DR11 -1.03 dB -13.76 dB 4:01 15-MELANCHOLY FIRE (Featuring Glenn Jones)
DR10 -1.07 dB -13.81 dB 4:25 16-YOU'VE BEEN ON MY MIND (Featuring Adaritha)
DR10 -1.09 dB -13.68 dB 4:57 17-SHE’S GONE (Featuring Beau Williams)
DR11 -0.21 dB -12.72 dB 4:27 18-MR. C
--------------------------------------------------------------------------------

Number of tracks: 18
Official DR value: DR11

Samplerate: 44100 Hz
Channels: 2
Bits per sample: 16
Bitrate: 952 kbps
Codec: FLAC
================================================================================


FLAC DOWNLOAD ~ Download FLAC
|

SCANS DOWNLOAD ~ Download SCANS


MP3 DOWNLOAD ~ Download MP3


password: BlondStyle

Alternative download links

Disc 1 Disc 2 Artwork Discs 1-2

Related MP3 FLAC to Norman Connors - Valentine Love: The BuddahArista Anthology 2CD (2017)
Feedback
All rights reserved.
WEBBG.com © 2000-2018