VA - Cabaret: Original Sound Track Recording (1972) 1996, Remastered Reissue
MP3 FLAC WMA APE HD

VA - Cabaret: Original Sound Track Recording (1972) 1996, Remastered Reissue

Artist: Various Artists
Title: Cabaret: Original Sound Track Recording
Year Of Release: 1996-11-19
Label: Hip-O Records (USA)
Genre: Stage & Screen, Soundtrack, Musical
Quality: FLAC (img.+.cue+.log) | MP3 320kbps
Total Time: 38:20
Total Size: 297,72 | 154,94 Mb (Full Scans)
WebSite:

Even though he came from the theater himself, Bob Fosse, when he came to make a film of Harold Prince's musical Cabaret, did what most movie directors do, taking the 15-song score and cutting two-thirds of it to leave five songs – "Wilkommen," "Two Ladies," "Tomorrow Belongs to Me," "If You Could See Her," and "Cabaret." (In addition, "Sitting Pretty" was performed instrumentally and "Married" in German.) He then allowed the show's songwriters, John Kander and Fred Ebb, to add material to emphasize the film's two musical stars, "Mein Herr" and "Maybe This Time" for Liza Minnelli and "Money, Money" for Minnelli and Joel Grey. ("Maybe This Time" was a Kander-Ebb song Minnelli had been singing since 1964.) The film was even more successful than the show, and the soundtrack album went gold, outselling the original Broadway cast album. It is not the record you want to buy to get the complete score, of course, and even at its 38-plus-minute running time it's padded. But it contains some definitive Minnelli performances, particularly her rendition of the title song. In the show and film, the song's upbeat, devil-may-care mood is in stark contrast to the downbeat conclusion of the plot, which finds lead character Sally Bowles stranded in Nazi Germany. Coming from Minnelli, there is an added subtext, as the performance can be read as a tribute to her mother, Judy Garland. And Grey is equally impressive, particularly in "Wilkommen" and "If You Could See Her." Cabaret won Academy Awards for Minnelli and Grey, but lost the Best Picture award, and a similar judgment can be made about the soundtrack album. Their performances are outstanding, but the album as a whole is a bit skimpy. Subsequent stage productions tended to incorporate the new film songs. (The 1996 CD reissue re-sequences the songs.) ~Review by William Ruhlmann~
Release of the album: 1972 [LP ABC Records, Cat.# ABCD 752, USA]
Release of this CD: 1996, November, 19 [CD Hip-O Records (USA), Cat.# HIPD-40027 / UPC: 076744002723]
(p) 1972 (c) 1996, 1972 MCA Records, Inc.
Distributed by Uni Distribution Corp.

Credits:

Art Direction [Reissue] – Vartan
Artwork By [Original Cabaret Lp Art Courtesy Of] – Barry Hansen, Brad Bennett
Coordinator [Album] – Lee Young
Coordinator [Reissue Coordinated By] – Andy McKaie, John Austin , Mitch Steele
Design [Reissue] – Wilson Design Group
Directed By [Musical Director], Orchestrated By – Ralph Burns
Liner Notes – Max O. Preeo
Lyrics By – Fred Ebb
Music By – John Kander
Performer – Joel Grey (tracks: 1, 4, 5, 10, 12), Liza Minnelli (tracks: 2 to 4, 11)
Remastered By [Digitally] – Doug Schwartz


Tracklist:

01. Joel Grey - Wilkommen (04:30)
02. Liza Minnelli - Mein Herr (03:36)
03. Liza Minnelli - Maybe This Time (03:11)
04. Liza Minnelli & Joel Grey - Money, Money (03:05)
05. Joel Grey - Two Ladies (03:12)
06. Greta Keller - Sitting Pretty (02:27)
07. Mark Lambert & the Nazi Youth - Tomorrow Belongs To Me (03:06)
08. Joel Grey - Tiller Girls (01:41)
09. Greta Keller - Heiraten (Married) (03:35)
10. Joel Grey - If You Could See Her (03:55)
11. Liza Minnelli - Cabaret (03:34)
12. John Kander & Fred Ebb - Finale (02:28)

--------------------------------------------------------------------------------
Analyzed: Greta Keller / Cabaret Original Soundtrack
--------------------------------------------------------------------------------

DR Peak RMS Duration Track
--------------------------------------------------------------------------------
DR11 0.00 dB -13.61 dB 2:27 06-Sitting Pretty
DR12 -1.70 dB -18.06 dB 3:35 09-Heiraten (Married)
--------------------------------------------------------------------------------

Number of tracks: 2
Official DR value: DR12

Samplerate: 44100 Hz
Channels: 2
Bits per sample: 16
Bitrate: 812 kbps
Codec: FLAC
================================================================================

--------------------------------------------------------------------------------
Analyzed: Joel Grey / Cabaret Original Soundtrack (1-4)
John Kander & Fred Ebb / Cabaret Original Soundtrack
--------------------------------------------------------------------------------

DR Peak RMS Duration Track
--------------------------------------------------------------------------------
DR12 0.00 dB -15.60 dB 4:30 01-Wilkommen
DR11 0.00 dB -14.05 dB 3:12 05-Two Ladies
DR11 0.00 dB -14.49 dB 1:41 08-Tiller Girls
DR12 0.00 dB -15.14 dB 3:55 10-If You Could See Her
DR14 0.00 dB -18.07 dB 2:28 12-Finale
--------------------------------------------------------------------------------

Number of tracks: 5
Official DR value: DR12

Samplerate: 44100 Hz
Channels: 2
Bits per sample: 16
Bitrate: 812 kbps
Codec: FLAC
================================================================================

--------------------------------------------------------------------------------
Statistics for: 04-Money, Money
Number of samples: 8149680
Duration: 3:05
--------------------------------------------------------------------------------

Left Right

Peak Value: -0.20 dB --- -0.10 dB
Avg RMS: -15.01 dB --- -15.61 dB
DR channel: 12.21 dB --- 12.10 dB
--------------------------------------------------------------------------------

Official DR Value: DR12

Samplerate: 44100 Hz
Channels: 2
Bits per sample: 16
Bitrate: 812 kbps
Codec: FLAC
================================================================================
--------------------------------------------------------------------------------
Analyzed: Liza Minnelli / Cabaret Original Soundtrack
--------------------------------------------------------------------------------

DR Peak RMS Duration Track
--------------------------------------------------------------------------------
DR11 0.00 dB -15.10 dB 3:36 02-Mein Herr
DR10 0.00 dB -15.36 dB 3:11 03-Maybe This Time
DR9 0.00 dB -12.35 dB 3:34 11-Cabaret
--------------------------------------------------------------------------------

Number of tracks: 3
Official DR value: DR10

Samplerate: 44100 Hz
Channels: 2
Bits per sample: 16
Bitrate: 812 kbps
Codec: FLAC
================================================================================

--------------------------------------------------------------------------------
Statistics for: 07-Tomorrow Belongs To Me
Number of samples: 8216124
Duration: 3:06
--------------------------------------------------------------------------------

Left Right

Peak Value: -0.42 dB --- 0.00 dB
Avg RMS: -16.56 dB --- -15.98 dB
DR channel: 11.64 dB --- 11.22 dB
--------------------------------------------------------------------------------

Official DR Value: DR11

Samplerate: 44100 Hz
Channels: 2
Bits per sample: 16
Bitrate: 812 kbps
Codec: FLAC
================================================================================


FLAC DOWNLOAD ~ Download FLAC


password: BlondStyle

MP3 DOWNLOAD ~ Download MP3


Alternative download links

Turbobit Turbobit

Related MP3 FLAC to VA - Cabaret: Original Sound Track Recording (1972) 1996, Remastered Reissue
Feedback
All rights reserved.
WEBBG.com © 2000-2018