The Emotions - Love Songs (1999)
MP3 FLAC WMA APE HD

The Emotions - Love Songs (1999)

  • Genre: Soul, R&B, FLAC / APE
  • Formats: MP3 FLAC WMA HD APE
  • Album Size: 1401 mb.
  • Archive: ZIP RAR
Artist: The Emotions
Title: Love Songs
Year Of Release: 1999-04-06
Label: Sony Music Entertainment Inc. (EU)
Genre: R&B, Soul, Smooth Soul, Quiet Storm
Quality: FLAC (img.+.cue+.log) | MP3 320kbps
Total Time: 48:40
Total Size: 364,50 | 143,04 Mb (Full Scans)
WebSite:

A fine companion piece to the earlier Best of My Love: The Best of the Emotions, this 13-track compilation focuses on the trio's most affecting songs of love, not only of the romantic variety but the spiritual as well. The majority of the songs are drawn from the group's mid-1970s efforts Flowers and Rejoice; the former, produced by Maurice White and the great Charles Stepney, remains the Emotions' most personal and accomplished work, a gorgeously arranged set that showcases both their solo and harmony vocals to beautifully ethereal effect. ~Review by Jason Ankeny~
Release of this CD: 1999, April, 6 [CD Sony Music Entertainment Inc. (EU), Cat.# 493415 2 / UPC: 5099749341524]
(c) 1999 Sony Music Entertainment Inc.
(p) 1976, 1977, 1978, 1979, 1981, 1999 Sony Music Entertainment Inc.
"Columbia" is the exclusive trademark of Sony Music Entertainment lnc.
"Legacy" and L, are trademarks of Sony Music Entertainment Inc.
Distribution Sony Music. This package consists of previously released material.
Made in Austria

Credits:

Original Recordings Produced by - Maurice White, Charles Stepney, Clarence McDonald and Billy Myers
Arrangements by - Tom Tom 84, Billy Myers, Wade Marcus and Ben Wright
Compilation Produced by - Leo Sacks and Wanda Hutchinson
Mastered by - Tom Ruff at Sony Music Studios, New York


Tracklist:

01. God Will Take Care Of You (00:34)
02. Blessed (04:36)
03. Flowers (04:29)
04. Key To My Heart (05:21)
05. Don't Ask My Neighbors (04:26)
06. We Go Through Changes (00:55)
07. How Can You Stop Loving Someone (04:14)
08. Special Part (03:52)
09. I Wouldn't Lie (04:34)
10. Ain't No Doubt About It (03:24)
11. Now That I Know (04:06)
12. On & On (04:02)
13. The Movie (04:10)

--------------------------------------------------------------------------------
Analyzed: The Emotions / Love Songs
--------------------------------------------------------------------------------

DR Peak RMS Duration Track
--------------------------------------------------------------------------------
DR10 -0.10 dB -14.93 dB 0:34 01-God Will Take Care Of You
DR10 -0.10 dB -11.65 dB 4:36 02-Blessed
DR10 -0.10 dB -11.51 dB 4:29 03-Flowers
DR11 -0.10 dB -12.90 dB 5:21 04-Key To My Heart
DR12 -0.10 dB -13.53 dB 4:26 05-Don't Ask My Neighbors
DR11 -0.10 dB -15.56 dB 0:55 06-We Go Through Changes
DR10 -0.10 dB -12.21 dB 4:14 07-How Can You Stop Loving Someone
DR11 -0.10 dB -13.70 dB 3:52 08-Special Part
DR12 -0.10 dB -13.55 dB 4:34 09-I Wouldn't Lie
DR12 -0.10 dB -13.78 dB 3:24 10-Ain't No Doubt About It
DR11 -0.10 dB -13.47 dB 4:06 11-Now That I Know
DR8 -0.10 dB -10.75 dB 4:02 12-On & On
DR10 -0.10 dB -12.81 dB 4:10 13-The Movie
--------------------------------------------------------------------------------

Number of tracks: 13
Official DR value: DR11

Samplerate: 44100 Hz
Channels: 2
Bits per sample: 16
Bitrate: 929 kbps
Codec: FLAC
================================================================================

FLAC DOWNLOAD ~ Download FLAC


password: BlondStyle

MP3 DOWNLOAD ~ Download MP3




Alternative download links

Turbobit Turbobit

Related MP3 FLAC to The Emotions - Love Songs (1999)
Feedback
All rights reserved.
WEBBG.com © 2000-2018