Johnny Mathis - S.O.U.L: Johnny Mathis (2012)
MP3 FLAC WMA APE HD

Johnny Mathis - S.O.U.L: Johnny Mathis (2012)

  • Genre: Soul, R&B, Pop, FLAC / APE
  • Formats: MP3 FLAC WMA HD APE
  • Album Size: 1593 mb.
  • Archive: ZIP RAR
Artist: Johnny Mathis
Title: S.O.U.L: Johnny Mathis
Year Of Release: 2012-05-29
Label: Sony Music Entertainment (USA)
Genre: R&B, Pop Soul, Vocal
Quality: FLAC (img.+.cue+.log) | MP3 320kbps
Total Time: 30:37
Total Size: 354,39 | 124,26 Mb (Full Scans)
WebSite:

Few crooners can claim that name with as much authority as Johnny Mathis. Although his style may seem rather old fashioned to those who grew up on rock & roll, Mathis’s rich, vibrato-heavy voice and interpretative knack made him remarkably popular in the 1950s and ‘60s. This disc, which spreads 10 tracks, features “Chances Are,” “Wonderful! Wonderful!,” “(Where Do I Begin) Love Story,” and a slew of other Mathis classics. Longtime fans are sure to find many of their favorites, and newcomers to Mathis will find this a fine place to start.
Release of this CD: 2012, May, 29 [CD Sony Music Entertainment (USA), Cat.# 88697999382 / UPC: 886979993822]
(c) 2012 Sony Music Entertainment.
This compilation (p) 2012 Sony Music Entertainment.
Distributed in U.S.A. by Sony Music Entertainment.
Printed in the U.S.A.

Credits:

Compilation Producer: Henry Towns
Photography: Jeff Dunas
Design: Federico Rulz


Tracklist:

01. Chances Are (03:03)
02. It's Not For Me To Say (03:05)
03. Misty (03:35)
04. Wonderful! Wonderful! (02:49)
05. The Twelfth Of Never (02:28)
06. Love Theme From "Romeo And Juliet" (A Time For Us) (02:56)
07. (Where Do I Begin) Love Story (02:47)
08. Evergreen (03:17)
09. The Look Of Love (03:42)
10. Too Much, Too Little, Too Late (duet with Deniece Williams) (02:57)

--------------------------------------------------------------------------------
Analyzed: Johnny Mathis / S.O.U.L: Johnny Mathis
--------------------------------------------------------------------------------

DR Peak RMS Duration Track
--------------------------------------------------------------------------------
DR9 -1.04 dB -11.87 dB 3:03 01-Chances Are
DR9 -1.28 dB -12.21 dB 3:05 02-It's Not For Me To Say
DR10 -0.30 dB -12.77 dB 3:35 03-Misty
DR8 -1.83 dB -11.35 dB 2:49 04-Wonderful! Wonderful!
DR10 -0.81 dB -11.85 dB 2:28 05-The Twelfth Of Never
DR8 -0.29 dB -11.87 dB 2:56 06-Love Theme From ''Romeo And Juliet'' (A Time For Us)
DR9 -0.29 dB -12.47 dB 2:47 07-(Where Do I Begin) Love Story
DR10 -0.30 dB -12.02 dB 3:17 08-Evergreen
DR9 -0.30 dB -12.46 dB 3:42 09-The Look Of Love
DR9 -0.29 dB -11.92 dB 2:57 10-Too Much, Too Little, Too Late
--------------------------------------------------------------------------------

Number of tracks: 10
Official DR value: DR9

Samplerate: 44100 Hz
Channels: 2
Bits per sample: 16
Bitrate: 735 kbps
Codec: FLAC
================================================================================

FLAC DOWNLOAD ~ Download FLAC


password: BlondStyle

MP3 DOWNLOAD ~ Download MP3




Alternative download links

Turbobit Turbobit

Related MP3 FLAC to Johnny Mathis - S.O.U.L: Johnny Mathis (2012)
Feedback
All rights reserved.
WEBBG.com © 2000-2018