Kool The Gang - Open Sesame (1976) 2011, Remastered Expanded Edition
MP3 FLAC WMA APE HD

Kool The Gang - Open Sesame (1976) 2011, Remastered Expanded Edition

Artist: Kool & The Gang
Title: Open Sesame
Year Of Release: 2011-04-25
Label: Big Break Records (UK)
Genre: R&B, Soul/Funk, Disco
Quality: FLAC (tracks+.cue+.log) | MP3 320kbps
Total Time: 51:58
Total Size: 403,62 | 158,95 Mb (Full Scans)
WebSite:

"Open Sesame" is the eighth studio album by the funk band Kool & the Gang, released in 1976. The album yielded the hit title track, "Open Sesame", which achieved some success, first as a top ten R&B single, then later as part of the Saturday Night Fever soundtrack. "Super Band" also reached the R&B top twenty. The album was the second of two albums released by the band in 1976. ~Wikipedia~
Release of the album: 1976, November [LP De-Lite Records, Cat.# DEP 2023, USA]
Release of this CD: 2011, April, 25 [CD Big Break Records (UK), Cat.# CDBBR 0045 / UPC: 5013929034525]
(p) 1976. This compilation (p)(c) 2011 Big Break Records.
All Tracks licensed from Universal Music Operations Ltd.
Marketed and Distributed by Cherry Red Records.
Made in EU/MCPS


Credits:

Alto Saxophone, Flute, Vocals, Percussion, Congas – Dennis Thomas
Bass Guitar, Vocals, Percussion – Robert "Kool" Bell*
Drums – George Brown
Effects – Jimmy J. Jordan
Electric Guitar, Acoustic Guitar, Percussion – Claydes Smith
Engineer – Nils Salminen
Engineer, Mixed By – Terry Rosiello
Executive-Producer – Claydes Smith, Ronald Bell
Harp – Ellouise Daughn
Liner Notes [Reissue] – Cleveland Brown, Shelley Nicole
Producer – KG Productions
Reissue Producer – Wayne A. Dickson
Reissue Producer [Associate] – Christian John Wikane, Michal Bednarek
Remastered By – Nick Robbins
Tenor Saxophone, Flute, Clavinet, Synthesizer [Arp Synthesizer], Vocals, Keyboards, Percussion, Vibraphone, Strings – Ronald Bell
Trumpet, Flugelhorn – Larry Gittens
Trumpet, Flugelhorn, Percussion – Robert Mickens
Vocals [Something Sweet] – Beverly Owens, Cynthia Huggins, Joan Motley, Renee Connel
Vocals, Percussion, Valve Trombone, Trombone [Slide] – Otha Nash
Voice [The Genie] – Donald Boyce


Tracklist:

01. Open Sesame (Part 1) (03:49)
02. Gift Of Love (04:10)
03. Little Children (05:30)
04. All Night Long (03:56)
05. Whisper Softly (06:06)
06. Super Band (04:56)
07. L-O-V-E (03:26)
08. Sunshine (03:30)

Bonus Tracks:
09. Open Sesame (Groove With The Genie) (Part 2) (Single Version) (04:28)
10. Super Band (Single Version) (03:22)
11. Open Sesame (Groove With The Genie) (Promotional 12" - Special Disco Version) (08:44)

--------------------------------------------------------------------------------
Analyzed: Kool & The Gang / Open Sesame
--------------------------------------------------------------------------------

DR Peak RMS Duration Track
--------------------------------------------------------------------------------
DR9 -0.30 dB -11.13 dB 3:49 01-Open Sesame - Part 1
DR9 -0.30 dB -10.49 dB 4:10 02-Gift Of Love
DR10 -0.30 dB -12.19 dB 5:30 03-Little Children
DR8 -0.30 dB -10.56 dB 3:56 04-All Night Long
DR10 -0.30 dB -13.19 dB 6:06 05-Whisper Softly
DR10 -0.30 dB -11.54 dB 4:56 06-Super Band
DR10 -0.30 dB -11.62 dB 3:26 07-L-O-V-E
DR10 -0.30 dB -12.89 dB 3:30 08-Sunshine
DR9 -0.30 dB -11.17 dB 4:28 09-Open Sesame (Groove With The Genie) - Part 2 [Single Version]
DR10 -0.30 dB -11.46 dB 3:22 10-Super Band [Single Version]
DR9 -0.30 dB -10.60 dB 8:44 11-Open Sesame (Groove With The Genie) [Promotional 12" - Special Disco Version]
--------------------------------------------------------------------------------

Number of tracks: 11
Official DR value: DR9

Samplerate: 44100 Hz
Channels: 2
Bits per sample: 16
Bitrate: 970 kbps
Codec: FLAC
================================================================================




Alternative download links

Turbobit Turbobit

Related MP3 FLAC to Kool The Gang - Open Sesame (1976) 2011, Remastered Expanded Edition
Feedback
All rights reserved.
WEBBG.com © 2000-2018