Princess - Princess (1986) 2009, Special Edition
MP3 FLAC WMA APE HD

Princess - Princess (1986) 2009, Special Edition

Artist: Princess
Title: Princess (Special Edition)
Year Of Release: 2009-04-13
Label: Cherry Pop Records (UK)
Genre: R&B, Soul/Funk, Electronic, Synth-pop, Disco
Quality: FLAC (img.+.cue+.log) | MP3 320kbps
Total Time: 01:19:15
Total Size: 601,59 | 209,07 Mb (Full Scans)
WebSite:

Desiree Heslop, best known as Princess, is a British singer who found chart success in the mid-1980s. In the late-1970s she worked with the group Osibisa. Her debut solo album Princess was composed and produced by Stock Aitken Waterman which contained the hit single, "Say I'm Your Number One". The album spawned five charting singles, and was certified silver in the UK. Heslop signed with Polydor and recorded her second album, All for Love in the United States, but neither the album nor its three singles had much success. In 1989, she released the stand-alone single "Lover Don't Go", which failed to chart. Her third album, Say It, which was slated for release in 1990, was never issued as Princess retired from the music scene and moved to the US after the death of her mother and the assassination of her brother. From 1991 to 2003 she lived in the US, before returning to England in 2003. That same year she formed her own music label with her brother Donovan, OnDa Ground Music Label, which has released all her music since, and released her first single in 14 years, "Ride", with rap ensemble EEDB. A music video was also filmed which referenced her retirement. She appeared in ITV's 2005 production Hit Me, Baby, One More Time, singing Kylie Minogue's "Slow". In April 2014, she released her third album, The Emergence, the first in 27 years. It is the first in a trilogy of albums, the other ones titled The Passion and The One. ~Wikipedia~
Next to the United States, England is the world's largest market for R&B. From Motown in the 1960s to urban contemporary in the 1980s and 1990s, plenty of R&B has been sold in cities like London, Manchester, and Birmingham. A lot of well known urban artists came out of England in the 1980s, including Soul II Soul, Sade, Junior, Billy Ocean, Five Star, and Loose Ends. Another British R&B artist who was active during that decade was former Osibisa singer Princess, who had a hit in 1986 with the sleek "Say I'm Your Number One." Produced by the prolific Mike Stock/Matt Aitken/Pete Waterman team - which is known for its work with Dead or Alive, Rick Astley, Samantha Fox, Bananarama, and others - Princess' first solo album is generally enjoyable even though it isn't as consistent as it could have been. Princess, an expressive singer along the lines of Evelyn "Champagne" King, Sharon Bryant, and Stephanie Mills, shows a lot of promise on the LP's best tracks, which range from "Say I'm Your Number One" (a Top 20 R&B hit in the U.S.) to the melancholy "After the Love Has Gone" and the funky "Just a Teaze." While some parts of the album are excellent, others are merely decent - at times, Princess coasts on her obvious talents instead of going that extra mile. But, overall, this release leaves listeners with a favorable impression of the singer, who, unfortunately, wasn't as successful in the U.S. as she was in England. ~Review by Alex Henderson~
Release of the album: 1986 [LP Supreme Records, Cat.# SU 1, UK]
Release of this CD: 2009, April, 13 [CD Cherry Pop Records (UK), Cat.# CRPOP18 / UPC: 5013929421820]
Note: Remastered Special Edition reissue of the original 1986 album. Includes rare bonus tracks, new sleeve notes, unseen photographs and picture discography.
This compilation (p)(c) 2009 Cherry Pop, a Division of Cherry Red Records Ltd.
Made in the E.U.
Credits:
Compiled By – Ian Usher, Jeremy Kay, John Palmer, Tom Parker
Design, Remastered By – John Palmer
Other [Special Thanks To] – Helen Dann, Pete Waterman
Producer, Arranged By – Stock Aitken Waterman
Written-By – Stock, Aitken & Waterman (tracks: 1 to 7, 9 to 15)

Tracklist:
01. In the Heat Of A Passionate Moment (03:34)
02. I'll Keep On Loving You (04:05)
03. After The Love Has Gone (03:52)
04. Say I'm Your Number One (03:40)
05. If It Makes You Feel Good (06:14)
06. Tell Me Tomorrow (03:58)
07. Anytime's The Right Time (04:44)
08. Just A Teaze (03:47)
Bonus Tracks:
09. Say I'm Your Number One (Remix Number 2) (11:02)
10. After the Love Has Gone (DJ Bad Mix) (08:03)
11. I'll Keep On Loving Yuo (US Remix) (06:27)
12. Tell Me Tomorrow (Soundtrack Version) (04:56)
13. In the Heat Of A Passionate Moment (Garage Mix) (05:12)
14. After The Love Has Gone (Promo Version) (06:48)
15. Say I'm Your Number One (Demo Version) (02:53)
--------------------------------------------------------------------------------
Analyzed: Princess / Princess (Special Edition)
--------------------------------------------------------------------------------
DR Peak RMS Duration Track
--------------------------------------------------------------------------------
DR9 0.00 dB -10.77 dB 3:34 01-In The Heat Of A Passionate Moment
DR9 0.00 dB -10.29 dB 4:05 02-I'll Keep On Loving You
DR9 0.00 dB -10.47 dB 3:52 03-After The Love Has Gone
DR9 0.00 dB -10.98 dB 3:40 04-Say I'm Your Number One
DR9 0.00 dB -10.64 dB 6:14 05-If It Makes You Feel Good
DR9 0.00 dB -10.62 dB 3:58 06-Tell Me Tomorrow
DR9 0.00 dB -10.74 dB 4:44 07-Anytime's The Right Time
DR10 0.00 dB -11.08 dB 3:47 08-Just A Tease
DR10 0.00 dB -11.20 dB 11:02 09-Say I'm Your Number One (Remix No 2)
DR9 0.00 dB -10.75 dB 8:03 10-After The Love Has Gone (DJ Bad Mix)
DR10 0.00 dB -12.38 dB 6:27 11-I'll Keep On Loving You (US Remix)
DR9 0.00 dB -10.61 dB 4:56 12-Tell Me Tomorrow (Soundtrack Version)
DR11 0.00 dB -13.35 dB 5:12 13-In The Heat Of A Passionate Moment (Garage Mix)
DR9 0.00 dB -10.88 dB 6:48 14-After The Love Has Gone (Promo Version)
DR10 0.00 dB -10.75 dB 2:53 15-Say I'm Your Number One (Demo Version)
--------------------------------------------------------------------------------
Number of tracks: 15
Official DR value: DR9
Samplerate: 44100 Hz
Channels: 2
Bits per sample: 16
Bitrate: 990 kbps
Codec: FLAC
================================================================================
FLAC DOWNLOAD ~ Download FLAC
password: BlondStyle
MP3 DOWNLOAD ~ Download MP3




Alternative download links

Turbobit Turbobit

Related MP3 FLAC to Princess - Princess (1986) 2009, Special Edition
Feedback
All rights reserved.
WEBBG.com © 2000-2018