Mothers Finest ‎- Love Changes: The Anthology 1972-1983 2CD (2017)
MP3 FLAC WMA APE HD

Mothers Finest ‎- Love Changes: The Anthology 1972-1983 2CD (2017)

Artist: Mother's Finest
Title: Love Changes: The Anthology 1972-1983
Year Of Release: 2017-03-03
Label: SoulMusic Records (UK)
Genre: R&B, Soul/Funk, Pop/Rock
Quality: FLAC (tracks+.cue+.log) | MP3 320kbps
Total Time: 02:37:32
Total Size: 1,08 Gb | 372,16 Mb (Full Scans-327,58 Mb)
WebSite:

SoulMusic Records is very proud to present 'Love Changes: The Anthology, 1972-83", a first-of-its-kind 2-CD set by Mother's Finest, considered the premier black rock-and-soul band of the '70's and '80's. This 37-track collection includes the entire 10-track 1983 LP, 'One Mother To Another', only ever released in Europe and making its worldwide CD debut. In addition, six tracks that were recorded for the group's first RCA LP (in 1972) and only issued on a now out-of-print US CD in 2010 are also included here along with the team's four charted singles, recorded for Epic Records during their seven-year tenure with the label. other standouts such as 'Somebody To Love,' (produced by Jimmy Iovine) along with 'U Turn Me On' and 'Evolution' from the 1981 LP, 'Iron Age' and key cuts from the group's three Epic studio albums such as 'Give You All The Love (Inside Of Me)' and a cover of the Motown classic, 'Mickey's Monkey'. Formed in 1970 originally by vocalists Glenn Murdock and Joyce Kennedy, the band expanded with a nucleus that included guitarist Gary 'Mo' Moore and bassist Jerry 'Wyzard' Seay. Extensive liner notes by renowned US writer A. Scott Galloway including quotes from original members of the group including Glenn, Joyce, Gary and Jerry; and excellent mastering by Nick Robbins.
Release of this 2CD Set: 2017, March, 3 [SoulMusic Records (UK), Cat.# SMCR 5151D / UPC: 5013929085138]
All tracks (p) 1972-1983 Sony Music Entertainment
Issued under licence from Sony Music Entertainment UK Limited
This compilation (p) 2017 Sony Music Entertainment
(c) 2017 SoulMusic Records
Marketed and Distributed by Cherry Red Records Ltd.
Made in the U.K.


Tracklist:

Disc 1

01. You Move Me
02. Dear Sir and Brother Mann
03. Monster People
04. Bone Song
05. Living Hero
06. Middle of the Night
07. Funky Mountain
08. Run Joe
09. Fire
10. Dontcha Wanna Love Me
11. Rain
12. My Baby
13. Give You All the Love (Inside of Me)
14. Baby Love
15. Thank You for the Love
16. Dis Go Dis Way, Dis Go Dat Way
17. Mickey's Monkey

--------------------------------------------------------------------------------
Analyzed: Mother's Finest / Love Changes: The Anthology 1972-1983
--------------------------------------------------------------------------------

DR Peak RMS Duration Track
--------------------------------------------------------------------------------
DR11 -0.40 dB -14.27 dB 3:59 01-YOU MOVE ME
DR11 -0.41 dB -13.27 dB 3:41 02-DEAR SIR AND BROTHER MANN
DR11 -0.99 dB -13.43 dB 3:53 03-MONSTER PEOPLE
DR11 -1.19 dB -13.40 dB 3:57 04-BONE SONG
DR10 -1.07 dB -13.87 dB 4:34 05-LIVING HERO
DR11 -0.40 dB -13.24 dB 5:21 06-MIDDLE OF THE NIGHT
DR12 -0.40 dB -13.54 dB 5:31 07-FUNKY MOUNTAIN
DR11 -0.40 dB -13.53 dB 2:49 08-RUN JOE
DR11 -0.52 dB -13.68 dB 4:08 09-FIRE
DR11 -0.40 dB -13.92 dB 5:23 10-DONTCHA WANNA LOVE ME
DR11 -0.40 dB -13.59 dB 4:11 11-RAIN
DR12 -0.40 dB -13.51 dB 4:40 12-MY BABY
DR11 -0.40 dB -13.72 dB 7:59 13-GIVE YOU ALL THE LOVE (INSIDE OF ME)
DR11 -1.00 dB -13.70 dB 4:21 14-BABY LOVE
DR11 -0.40 dB -13.38 dB 5:04 15-THANK YOU FOR THE LOVE
DR12 -0.40 dB -13.45 dB 4:15 16-DIS GO DIS WAY, DIS GO DAT WAY
DR11 -0.40 dB -13.41 dB 4:40 17-MICKEY'S MONKEY
--------------------------------------------------------------------------------

Number of tracks: 17
Official DR value: DR11

Samplerate: 44100 Hz
Channels: 2
Bits per sample: 16
Bitrate: 940 kbps
Codec: FLAC
================================================================================
Disc 2

01. Hard Rock Lover
02. Piece of the Rock
03. Truth'll Set You Free
04. Don't Wanna Come Back
05. Love Changes
06. Can't Fight the Feeling
07. Watch My Stylin'
08. Somebody to Love (Live)
09. U Turn Me on
10. Evolution
11. Secret Service
12. What Kind of Fool
13. Victory
14. Love Me Too
15. Everybody Needs Somebody
16. Big Shot Romeo
17. What You Do to Me
18. In My Baby's Arms
19. Some Kind of Madness
20. Take Me to the Middle (of Your Luv)

--------------------------------------------------------------------------------
Analyzed: Mother's Finest / Love Changes: The Anthology 1972-1983
--------------------------------------------------------------------------------

DR Peak RMS Duration Track
--------------------------------------------------------------------------------
DR11 -1.15 dB -13.42 dB 2:44 01-HARD ROCK LOVER
DR10 -0.97 dB -13.25 dB 3:26 02-PIECE OF THE ROCK
DR11 -0.86 dB -13.60 dB 4:24 03-TRUTH'LL SET YOU FREE
DR12 -0.40 dB -13.98 dB 4:19 04-DON'T WANNA COME BACK
DR12 -0.40 dB -14.25 dB 4:53 05-LOVE CHANGES
DR12 -0.40 dB -13.90 dB 4:03 06-CAN'T FIGHT THE FEELING
DR12 -0.40 dB -13.91 dB 3:59 07-WATCH MY STYLIN'
DR12 -0.40 dB -13.86 dB 5:55 08-SOMEBODY TO LOVE (LIVE)
DR12 -0.40 dB -13.57 dB 3:56 09-U TURN ME ON
DR11 -0.40 dB -13.75 dB 3:49 10-EVOLUTION
DR12 -0.40 dB -13.76 dB 4:18 11-SECRET SERVICE
DR12 -0.40 dB -13.57 dB 3:42 12-WHAT KIND OF FOOL
DR12 -0.40 dB -13.55 dB 4:12 13-VICTORY
DR12 -0.40 dB -13.87 dB 4:01 14-LOVE ME TOO
DR12 -0.40 dB -13.77 dB 3:39 15-EVERYBODY NEEDS SOMEBODY
DR12 -0.40 dB -13.77 dB 3:40 16-BIG SHOT ROMEO
DR12 -0.40 dB -13.73 dB 3:16 17-WHAT YOU DO TO ME
DR12 -0.40 dB -14.04 dB 3:16 18-IN MY BABY'S ARMS
DR11 -0.40 dB -13.82 dB 3:31 19-SOME KIND OF MADNESS
DR11 -0.40 dB -13.41 dB 4:06 20-TAKE ME TO THE MIDDLE (OF YOUR LUV)
--------------------------------------------------------------------------------

Number of tracks: 20
Official DR value: DR12

Samplerate: 44100 Hz
Channels: 2
Bits per sample: 16
Bitrate: 947 kbps
Codec: FLAC
================================================================================


FLAC DOWNLOAD ~ Download FLAC
|

SCANS DOWNLOAD ~ Download SCANS


MP3 DOWNLOAD ~ Download MP3


password: BlondStyle

Alternative download links

Disc 1 Disc 2 Artwork Discs 1-2

Related MP3 FLAC to Mothers Finest ‎- Love Changes: The Anthology 1972-1983 2CD (2017)
Feedback
All rights reserved.
WEBBG.com © 2000-2018