James Brown ‎- CD Of JB II (Cold Sweat And Other Soul Classics) (1987)
MP3 FLAC WMA APE HD

James Brown ‎- CD Of JB II (Cold Sweat And Other Soul Classics) (1987)

Artist: James Brown
Title: CD Of JB II (Cold Sweat And Other Soul Classics)
Year Of Release: 1987
Label: Polydor / PolyGram Records, Inc. (USA)
Genre: R&B, Soul/Funk
Quality: FLAC (tracks+.cue+.log) | MP3 320kbps
Total Time: 01:04:59
Total Size: 434,20 | 176,46 Mb (Full Scans)
WebSite:

The CD Of JB is a compilation CD Polydor did for James Brown in 1985. Due to its success, Polydor did a second one in 1987 - an excellent follow-up package that includes various James Brown hits from both the soul and funk eras, beginning with "Cold Sweat" and continuing into the '70s. It's also not as vital since the issue of the 1991 boxed set, but contains several fine songs. ~Review by Ron Wynn~
Release of this CD: 1987 [CD Polydor/PolyGram Records, Inc. (USA), Cat.# 831 700-2 / UPC: 042283170025]
(p)(c) 1987 PolyGram Records, Inc.
Printed in U.S.A.

Credits:

Compilation Producer, Art Direction – Tim Rogers
Design – Jeffrey Faville
Engineer [Additional Engineering] – Mark Wilder
Producer [Associate Producer] – Cliff White
Remastered By [Digital Remastering], Producer [Additional Production] – Dennis M. Drake
Vocals, Producer [Original Sessions Produced By] – James Brown


Tracklist:

01. Good Good Lovin' (02:18)
02. I'll Go Crazy (02:08)
03. Think (Original) (02:47)
04. Night Train (03:35)
05. Cold Sweat (07:30)
06. I Can't Stand Myself (When You Touch Me) (03:28)
07. Say It Loud. I'm Black And I'm Proud (04:48)
08. Give It Up Or Turnit A Loose (Original) (03:20)
09. I Don't Want Nobody To Give Me Nothing (Open Up The Door, I'll Get It Myself) (07:03)
10. I'm A Greedy Man (06:32)
11. Make It Funky (07:25)
12. Get On The Good Foot (05:20)
13. Papa Don't Take No Mess (Part 1) (04:36)
14. Get Up Offa That Thing (04:10)

--------------------------------------------------------------------------------
Analyzed: James Brown / CD Of JB II
--------------------------------------------------------------------------------

DR Peak RMS Duration Track
--------------------------------------------------------------------------------
DR12 -2.60 dB -17.26 dB 2:18 01-01 - Good Good Lovin'
DR12 -1.34 dB -17.92 dB 2:08 02-02 - I'll Go Crazy
DR14 -1.27 dB -16.51 dB 2:47 03-03 - Think (Original)
DR11 -3.20 dB -16.37 dB 3:35 04-04 - Night Train
DR14 0.00 dB -15.93 dB 7:30 05-05 - Cold Sweat
DR12 0.00 dB -13.97 dB 3:28 06-06 - I Can't Stand Myself (When You Touch Me)
DR13 0.00 dB -14.41 dB 4:48 07-07 - Say It Loud - I'm Black And I'm Proud
DR13 0.00 dB -15.53 dB 3:20 08-08 - Give It Up Or Turnit A Loose (Original)
DR12 0.00 dB -13.92 dB 7:03 09-09 - I Don't Want Nobody To Give Me Nothing (Open Up The Door, I'll Get It Myself)
DR12 0.00 dB -13.58 dB 6:32 10-10 - I'm A Greedy Man
DR14 0.00 dB -16.04 dB 7:25 11-11 - Make It Funky
DR14 -0.40 dB -16.29 dB 5:20 12-12 - Get On The Good Foot
DR15 -0.60 dB -17.95 dB 4:36 13-13 - Papa Don't Take No Mess (Part 1)
DR14 0.00 dB -16.17 dB 4:10 14-14 - Get Up Offa That Thing
--------------------------------------------------------------------------------

Number of tracks: 14
Official DR value: DR13

Samplerate: 44100 Hz
Channels: 2
Bits per sample: 16
Bitrate: 893 kbps
Codec: FLAC
================================================================================




Alternative download links

Turbobit Turbobit

Related MP3 FLAC to James Brown ‎- CD Of JB II (Cold Sweat And Other Soul Classics) (1987)
Feedback
All rights reserved.
WEBBG.com © 2000-2018