VA - 25 Hard-To-Find Motown Classics Volume III (1986)
MP3 FLAC WMA APE HD

VA - 25 Hard-To-Find Motown Classics Volume III (1986)

Artist: Various Artists
Title: 25 Hard-To-Find Motown Classics Volume III
Year Of Release: 1986
Label: Motown Record Company (USA)
Genre: Early R&B, Soul, Pop, Vocal
Quality: FLAC (tracks+.cue+.log) | MP3 320kbps
Total Time: 01:10:34
Total Size: 430,18 | 170,14 Mb (Full Scans)
WebSite:

An excellent follow-up, with excellent performances by Kim Weston, Brenda Holloway, the Contours, the Isley Brothers, the Elgins, Shorty Long, Eddie Holland, Tammi Terrell, the Velvelettes, and more. ~Review by John Lowe~
Release of this CD: 1986 [CD Motown Record Company (USA), Cat.# MCD06219MD / UPC: 050109621927]
Compilation (p)(c) 1986 Motown Record Corporation.
Marketed in the USA by MCA Distributing Corporation
Printed in U.S.A. (Artwork)
Made in Japan by Sanyo (Disc)


Credits:

Art Direction – Johnny Lee
Compiled By – John Matousek
Concept By [Compilation] – John Silva
Design – Andy Engel
Mastered By – John Matousek


Tracklist:

01. Kim Weston - Take Me In Your Arms (Rock Me A Little While) (02:59)
02. Kim Weston - Looking For The Right Guy (02:30)
03. Kim Weston - Love Me All The Way (02:56)
04. The Velvelettes - A Bird In The Hand (Is Worth Two In The Bush) (02:53)
05. Tammi Terrell - Come On And See Me (02:23)
06. Brenda Holloway - Operator (03:15)
07. Brenda Holloway - I'll Be Available (02:41)
08. Brenda Holloway - I'll Always Love You (02:52)
09. Shorty Long - Devil With The Blue Dress (03:15)
10. The Supremes - He's My Man (02:59)
11. Edwin Starr - Agent Double O Soul (02:41)
12. Edwin Starr - Stop Her On Sight (S.O.S.) (02:21)
13. Eddie Holland - Leaving Here (02:31)
14. Eddie Holland - Just Aint Enough Love (02:28)
15. Eddie Holland - Candy To Me (02:29)
16. The Isley Brothers - This Old Heart Of Mine (02:54)
17. The Isley Brothers - Behind A Painted Smile (02:49)
18. Spinners - Truly Yours (03:03)
19. The Contours - Just A Little Misunderstanding (02:44)
20. The Contours - Do You Love Me (02:55)
21. The Contours - First I Look At The Purse (03:01)
22. Marv Johnson - Why Do You Want To Let Me Go (02:58)
23. The Elgins - Stay In My Lonely Arms (02:59)
24. The Elgins - Put Yourself In My Place (02:41)
25. Blinky - I Wouldn't Change The Man He Is (03:18)

--------------------------------------------------------------------------------
Analyzed: Blinky / 25 Hard To Find Motown Classics Volume III
Brenda Holloway / 25 Hard To Find Motown Classics Volume III (2-4)
Eddie Holland / 25 Hard To Find Motown Classics Volume III (5-7)
Edwin Starr / 25 Hard To Find Motown Classics Volume III (8-9)
Kim Weston / 25 Hard To Find Motown Classics Volume III (10-12)
Marv Johnson / 25 Hard To Find Motown Classics Volume III
Shorty Long / 25 Hard To Find Motown Classics Volume III
Tammi Terrell / 25 Hard To Find Motown Classics Volume III
The Contours / 25 Hard To Find Motown Classics Volume III (16-18)
The Elgins / 25 Hard To Find Motown Classics Volume III (19-20)
The Isley Brothers / 25 Hard To Find Motown Classics Volume III (21-22)
The Spinners / 25 Hard To Find Motown Classics Volume III
The Supremes / 25 Hard To Find Motown Classics Volume III
Velvelettes / 25 Hard To Find Motown Classics Volume III
--------------------------------------------------------------------------------

DR Peak RMS Duration Track
--------------------------------------------------------------------------------
DR12 0.00 dB -16.42 dB 3:18 25-I Wouldn't Change The Man He Is
DR10 -2.23 dB -13.72 dB 3:15 06-Operator
DR11 -0.40 dB -12.96 dB 2:41 07-I'll Be Available
DR13 -0.47 dB -18.03 dB 2:52 08-I'll Always Love You
DR11 -0.40 dB -13.23 dB 2:31 13-Leaving Here
DR11 0.00 dB -13.06 dB 2:28 14-Just Ain't Enough Love
DR11 -0.74 dB -13.14 dB 2:29 15-Candy To Me
DR13 0.00 dB -15.42 dB 2:42 11-Agent Double O Soul
DR13 -0.12 dB -15.84 dB 2:21 12-Stop Her On Sight (S.O.S.)
DR10 -1.51 dB -13.25 dB 2:59 01-Take Me In Your Arms (Rock Me A Little While)
DR11 -1.63 dB -13.56 dB 2:30 02-Looking For The Right Guy
DR12 0.00 dB -12.90 dB 2:56 03-Love Me All The Way
DR11 -0.69 dB -12.99 dB 2:58 22-Why Do You Want To Let Me Go
DR16 -0.80 dB -18.40 dB 3:15 09-Devil With The Blue Dress
DR12 -0.52 dB -14.94 dB 2:23 05-Come On And See Me
DR12 -0.39 dB -14.00 dB 2:44 19-Just A Little Misunderstanding
DR10 -0.78 dB -12.17 dB 2:55 20-Do You Love Me
DR12 -0.93 dB -15.28 dB 3:01 21-First I Look At The Purse
DR10 -1.18 dB -13.33 dB 2:59 23-Stay In My Lonely Arms
DR13 0.00 dB -14.99 dB 2:41 24-Put Yourself In My Place
DR10 -1.24 dB -13.80 dB 2:54 16-This Old Heart Of Mine (Is Weak For You)
DR12 -0.87 dB -15.57 dB 2:49 17-Behind A Painted Smile
DR12 -0.58 dB -15.17 dB 3:03 18-Truly Yours
DR13 -0.08 dB -15.46 dB 2:59 10-He's My Man
DR11 -1.06 dB -14.05 dB 2:53 04-A Bird In The Hand (Is Worth Two In The Bush)
--------------------------------------------------------------------------------

Number of tracks: 25
Official DR value: DR12

Samplerate: 44100 Hz
Channels: 2
Bits per sample: 16
Bitrate: 776 kbps
Codec: FLAC
================================================================================


FLAC DOWNLOAD ~ Download FLAC


password: BlondStyle

MP3 DOWNLOAD ~ Download MP3


Alternative download links

Turbobit Turbobit

Related MP3 FLAC to VA - 25 Hard-To-Find Motown Classics Volume III (1986)
Feedback
All rights reserved.
WEBBG.com © 2000-2018