Terri Wells - Just Like Dreamin (1984) 2012, Remastered Expanded Edition
MP3 FLAC WMA APE HD

Terri Wells - Just Like Dreamin (1984) 2012, Remastered Expanded Edition

Artist: Terri Wells
Title: Just Like Dreamin'
Year Of Release: 2012-02-27
Label: Big Break Records (UK)
Genre: R&B, Soul/Funk, Electronic
Quality: FLAC (tracks+.cue+.log) | MP3 320kbps
Total Time: 01:19:22
Total Size: 597,90 | 228,38 Mb (Full Scans)
WebSite:

Terri Wells started singing in local churches until she became old enough to sing in clubs before going onto join City Limits who were led by Bruce Hawes (writer for Three Degrees, Stylistics, The Detroit Spinners and Dionne Warwick to name a few). She then moved into a career as a session singer touring and recording with the likes of Patti LaBelle, Lou Rawls, MFSB and Leon Huff as well as working with Roy Ayers, most notably as lead vocalist on Turn Me Loose and the Dexter Wansell Philly Soul classic The Sweetest Pain before establishing herself as a solo artist in her own right. * BBR is proud to present Terri's 1984 Philly World Records album JUST LIKE DREAMIN' (produced by Nick Martinelli) which despite only being 8 tracks long gave rise to 4 singles with her third single I'll Be Around becoming a top 20 hit in the UK, and the biggest UK hit for Philly World Records in the process. * Her debut solo single You Make It Heaven reached UK #53 and the 12" Mix has featured on Disco compilations from the likes of Disco Discharge and Harmless as well as being the opening track on the Best Of Philly World Records. Her follow up single I'm Giving All My Love reached #66 in the R&B charts and is a real dance floor filler which reached #25 on the Club Play Singles chart in 1984. ~Amazon~
Release of the album: 1984 [LP Philly World Records, Cat.# 90189-1, USA]
Release of this CD: 2012, February, 27 [CD Big Break Records (UK), Cat.# CDBBR 0097 / UPC: 5013929039728]
This compilation (p) 2012 Essential Media Group.
(c) 2012 Big Break Records.
Licensed courtesy of Essential media Group LLC.
Marketed and Distributed by Cherry Red Records.
Made in EU/MCPS


Credits:

Art Direction – Lynn Dreese Breslin
Liner Notes, Interviewer, Research [Repertoire] – Marcus Spehr
Photography By – Gary Heery
Producer – Nick Martinelli
Reissue Producer [Associate] – Christian John Wikane, Leon Fort
Reissue Producer, Remastered By [Digitally] – Wayne A. Dickson
Remastered By – Rick Pantoja
Research [Audio] – Stuart West
Typography [Credits Transcription] – Leon Fort


Tracklist:

01. I'm Givin' All My Love (06:33)
02. Just Like Dreamin' (05:16)
03. Falling Leaves (04:42)
04. Can't Stop (04:11)
05. I Already Know (05:13)
06. I'll Be Around (06:04)
07. Who's That Stranger (05:30)
08. You Make It Heaven (03:59)

Bonus Tracks:
09. I'll Be Around (Single Version) (03:59)
10. I'm Givin' All My Love (Single Version) (04:10)
11. Just Like Dreamin' (Single Version) (03:56)
12. You Make It Heaven (12" Version) (05:27)
13. I'll Be Around (Instrumental) (05:24)
14. I'm Givin' All My Love (Instrumental) (06:02)
15. Just Like Dreamin' (Instrumental) (04:04)
16. You Make It Heaven (Instrumental) (04:52)

--------------------------------------------------------------------------------
Analyzed: Terri Wells / Just Like Dreamin'
--------------------------------------------------------------------------------

DR Peak RMS Duration Track
--------------------------------------------------------------------------------
DR11 -0.30 dB -12.57 dB 6:33 01-I'm Givin' All My Love
DR11 -0.30 dB -12.85 dB 5:16 02-Just Like Dreamin'
DR11 -0.30 dB -12.72 dB 4:42 03-Falling Leaves
DR10 -0.30 dB -12.36 dB 4:11 04-Can't Stop
DR9 -0.30 dB -10.79 dB 5:13 05-I Already Know
DR10 -0.30 dB -11.45 dB 6:04 06-I'll Be Around
DR11 -0.30 dB -12.56 dB 5:30 07-Who's That Stranger
DR10 -0.30 dB -12.31 dB 3:59 08-You Make It Heaven
DR11 -0.30 dB -12.30 dB 3:59 09-I'll Be Around (Single Version)
DR11 -0.30 dB -12.69 dB 4:10 10-I'm Givin All My Love (Single Version)
DR10 -0.49 dB -12.97 dB 3:56 11-Just Like Dreamin' (Single Version)
DR11 -0.30 dB -12.82 dB 5:27 12-You Make It Heaven (12' Version)
DR12 -0.30 dB -12.99 dB 5:24 13-I'll Be Around (Instrumental)
DR12 -0.30 dB -13.45 dB 6:02 14-I'm Givin All My Love (Instrumental)
DR12 -0.30 dB -13.73 dB 4:04 15-Just Like Dreamin' (Instrumental)
DR12 -0.30 dB -13.94 dB 4:52 16-You Make It Heaven (Instrumental)
--------------------------------------------------------------------------------

Number of tracks: 16
Official DR value: DR11

Samplerate: 44100 Hz
Channels: 2
Bits per sample: 16
Bitrate: 859 kbps
Codec: FLAC
================================================================================




Alternative download links

Turbobit Turbobit

Related MP3 FLAC to Terri Wells - Just Like Dreamin (1984) 2012, Remastered Expanded Edition
Feedback
All rights reserved.
WEBBG.com © 2000-2018