Earth, Wind Fire - Beautiful Ballads (2006)
MP3 FLAC WMA APE HD

Earth, Wind Fire - Beautiful Ballads (2006)

Artist: Earth, Wind & Fire
Title: Beautiful Ballads
Year Of Release: 2006-12-26
Label: Columbia Records/Legacy (USA)
Genre: R&B, Soul/Funk, Disco
Quality: FLAC (img.+.cue+.log) | MP3 320kbps
Total Time: 01:06:51
Total Size: 475,51 | 168,74 Mb (Full Scans)
WebSite:

This 14-cut ballads collection from Legacy is culled from Earth, Wind & Fire's glory years with the label between 1973 and 1979. There are many classic cuts here; well, all of them actually, that rate in the slow burner hall of fame. Cuts like 1974's "Devotion," and "Keep Your Head to the Sky," from the 1973 album of the same name are here, along with "Love's Holiday" and "Be Ever Wonderful," from 1977's All 'N All, as well as the super bad "Wait," from I Am in 1979. While it is tempting to think of this as simply a comp, putting all these ballads together on a single disc creates a fine vibe for digging into the truly lush and romantic side of one of the greatest groups of the '70s. ~Review by Thom Jurek~
Release of this CD: 2006, December, 26 [CD Columbia Records/Legacy (USA), Cat.# 82876 89154 2 / UPC: 828768915424]
(c) 2006 Sony BMG Music Entertainment.
(p) 1973, 1974, 1975, 1976, 1977, 1979, 2006 Sony BMG Music Entertainment.
Manufactured and Distributed by Columbia Records, a Division of Sony BMG Music Entertainment.
Printed in U.S.A.


Credits:

Mastered By – Mark Wilder
Producer – Charles Stepney, Joe Wissert, Larry Dunn, Maurice White, Verdine White


Tracklist:

01. That's The Way Of The World (05:47)
02. All About Love (05:32)
03. Devotion (04:51)
04. Can't Hide Love (04:11)
05. Fantasy (04:38)
06. I'll Write A Song For You (05:24)
07. Be Ever Wonderful (05:08)
08. Wait (03:41)
09. After The Love Is Gone (04:35)
10. Love's Holiday (04:23)
11. Keep Your Head To The Sky (05:11)
12. Reasons (05:00)
13. Spirit (03:12)
14. Imagination (05:16)

--------------------------------------------------------------------------------
Analyzed: Earth Wind & Fire / Beautiful Ballads
--------------------------------------------------------------------------------

DR Peak RMS Duration Track
--------------------------------------------------------------------------------
DR9 -1.11 dB -12.19 dB 5:47 01-That's The Way Of The World
DR11 0.00 dB -13.36 dB 5:32 02-All About Love
DR12 0.00 dB -14.16 dB 4:51 03-Devotion
DR9 -0.81 dB -11.83 dB 4:11 04-Can't Hide Love
DR9 -2.52 dB -14.07 dB 4:38 05-Fantasy
DR12 -0.52 dB -15.40 dB 5:24 06-I'll Write A Song For You
DR11 -0.81 dB -14.15 dB 5:08 07-Be Ever Wonderful
DR15 -0.32 dB -17.39 dB 3:41 08-Wait
DR14 -0.01 dB -16.21 dB 4:35 09-After The Love Has Gone
DR11 -0.03 dB -14.35 dB 4:23 10-Love's Holiday
DR8 -2.73 dB -13.55 dB 5:11 11-Keep Your Head To The Sky
DR12 0.00 dB -14.24 dB 5:00 12-Reasons
DR12 -0.01 dB -15.62 dB 3:12 13-Spirit
DR13 -0.01 dB -15.60 dB 5:16 14-Imagination
--------------------------------------------------------------------------------

Number of tracks: 14
Official DR value: DR11

Samplerate: 44100 Hz
Channels: 2
Bits per sample: 16
Bitrate: 929 kbps
Codec: FLAC
================================================================================


FLAC DOWNLOAD ~ Download FLAC


password: BlondStyle

MP3 DOWNLOAD ~ Download MP3


Alternative download links

Turbobit Turbobit

Related MP3 FLAC to Earth, Wind Fire - Beautiful Ballads (2006)
Feedback
All rights reserved.
WEBBG.com © 2000-2018