Stevie Wonder - I Was Made To Love Her (19672016) HDtracks
MP3 FLAC WMA APE HD

Stevie Wonder - I Was Made To Love Her (19672016) HDtracks

Artist: Stevie Wonder
Title: I Was Made To Love Her
Year Of Release: 2016 (1967-08-28)
Label: Universal Motown
Genre: R&B, Pop/Rock, Pop-Soul, Motown
Quality: FLAC (tracks) [24Bit/192kHz]
Total Time: 32:26
Total Size: 1,63 Gb (Front Cover)
WebSite:

I Was Made to Love Her is the seventh studio album by Stevie Wonder, released on August 28, 1967 under Tamla Records, a Motown subsidiary. This album was rushed out to capitalize on the success of the title song, which was Wonder's biggest pop hit since "Fingertips, Pt. 2," and would not be bettered until "Superstition" in 1972. Other than the hit, it's all filler, but not uninteresting for that. There are several contributions from the Wonder team at Motown, covers of other Motown hits, and stabs at sounding like Ray Charles, James Brown, and Otis Redding. At 17, Wonder was becoming both a remarkable mimic, and an original talent on his own. ~Review by William Ruhlmann~
Release of this album: 1967, August, 28 [LP Tamla, Cat.# TS 279, USA]
Release of this HDtracks edition: 2016 [Label: Universal Motown]
(c) Originally released 1967. Motown Records, a Division of UMG Recordings, Inc. (p) 2016 Motown Records, a Division of UMG Recordings, Inc.
Credits:
Photography By – Frank Dandridge
Producer – Henry Cosby

Tracklist:
01. I Was Made To Love Her (02:36)
(H. Cosby, L. Hardaway, S. Wonder, S. Moy)
02. Send Me Some Lovin' (02:33)
(J. Marascalco, L. Price)
03. I'd Cry (02:34)
(S. Wonder, S. Moy)
04. Everybody Needs Somebody (I Need You) (02:37)
(C. Paul, M. Broadnax, S. Wonder)
05. Respect (02:21)
(O. Redding)
06. My Girl (02:56)
(R. White, W. Robinson)
07. Baby Don't You Do It (02:12)
(Holland, Dozier, Holland)
08. A Fool For You (03:16)
(R. Charles)
09. Can I Get A Witness (02:43)
(Holland, Dozier, Holland)
10. I Pity The Fool (03:05)
(D. Malone)
11. Please, Please, Please (02:41)
(J. Brown, J. Terry)
12. Every Time I See You I Go Wild (02:53)
(H. Cosby, S. Wonder, S. Moy)
--------------------------------------------------------------------------------
Analyzed: Stevie Wonder / I Was Made To Love Her
--------------------------------------------------------------------------------
DR Peak RMS Duration Track
--------------------------------------------------------------------------------
DR11 -0.08 dB -12.19 dB 2:36 01-I Was Made To Love Her
DR10 -0.01 dB -11.83 dB 2:33 02-Send Me Some Lovin'
DR11 0.00 dB -12.35 dB 2:34 03-I'd Cry
DR9 0.00 dB -11.07 dB 2:37 04-Everybody Needs Somebody (I Need You)
DR11 -0.16 dB -12.93 dB 2:21 05-Respect
DR11 0.00 dB -12.82 dB 2:56 06-My Girl
DR10 0.00 dB -12.22 dB 2:12 07-Baby Don't You Do It
DR12 0.00 dB -14.10 dB 3:16 08-A Fool For You
DR10 0.00 dB -11.89 dB 2:43 09-Can I Get A Witness
DR11 0.00 dB -12.73 dB 3:05 10-I Pity The Fool
DR10 -0.05 dB -12.04 dB 2:41 11-Please, Please, Please
DR10 0.00 dB -11.17 dB 2:53 12-Every Time I See You I Go Wild
--------------------------------------------------------------------------------
Number of tracks: 12
Official DR value: DR11
Samplerate: 192000 Hz
Channels: 2
Bits per sample: 24
Bitrate: 6849 kbps
Codec: FLAC
================================================================================
FLAC 24/192 DOWNLOAD ~ Download 24/192 FLAC
Turbobit
|
password: BlondStyle



Alternative download links

Part 1 Part 2

Related MP3 FLAC to Stevie Wonder - I Was Made To Love Her (19672016) HDtracks
Feedback
All rights reserved.
WEBBG.com © 2000-2018