Michael Bolton ‎- Michael Bolton (1983) FLAC
MP3 FLAC WMA APE HD

Michael Bolton ‎- Michael Bolton (1983) FLAC

  • Genre: Rock, FLAC / APE
  • Formats: MP3 FLAC WMA HD APE
  • Album Size: 1897 mb.
  • Archive: ZIP RAR
Artist: Michael Bolton
Title: Michael Bolton
Year Of Release: 1983
Label: Columbia Records (USA)
Genre: Pop/Rock, AOR, Ballad
Quality: FLAC (img.+.cue+.log)
Total Time: 33:34
Total Size: 239,41 Mb (Full Scans)
WebSite:

Michael Bolton is the third studio album by American recording artist Michael Bolton. It was Bolton's first record to be released, in 1983, on Columbia Records. This was also the first time that Bolton recorded under his stage name; his previous releases, Michael Bolotin and Everyday of My Life, had been released under his given name, Michael Bolotin. It features then future Kiss guitarist Bruce Kulick on lead guitar, rotating with Bolton himself. Future Trans-Siberian Orchestra, Savatage and Megadeth guitarist, Al Pitrelli replaced Kulick on the tour supporting the single, "Fool's Game", though the tour was cancelled after four shows. The Rolling Stone Album Guide said the album was "better balanced and more pop-savvy [than the rest of Bolton's first four albums], but falters when he attempts an over-burdened rendition of The Supremes' 'Back in My Arms Again'." Allmusic gave the album a generally negative retrospective review, saying that it was dominated by arena rock cliches, but acknowledged that "Bolton was an undeniably involving singer, and songs like 'Fools Game,' the lead-off track and chart single, were satisfying pop efforts".
Release of this album: 1983, January [LP Columbia, Cat.# BFC 38537, USA]
Release of this CD: 1983 [CD Columbia Records (USA), Cat.# CK 38537 / UPC: 07464385372]
(c) 1983 CBS Records Inc. (p) 1983 CBS Records Inc.
Manufactured by Columbia Records/CBS Records Inc.
Printed in U.S.A.

Credits:

Backing Vocals – Craig Brooks (tracks: 1, 3 to 5, 7 to 9), George Clinton (tracks: 9), Lloyd Landesman (tracks: 2, 4, 5, 7), Mark Mangold (tracks: 1), Michael Bolton, Scott Zito (tracks: 2, 6)
Bass – Mark Clarke (tracks: 1 to 5, 7 to 9), Scott Zito (tracks: 6)
Creative Director [Direction in Association With] – David Krebs, Steve Leber
Creative Director [Direction] – Louis Levin
Design – Allen Weinberg
Drums – Chuck Bürgi (tracks: 2 to 9), Michael Braun (tracks: 1)
Engineer – Carla Bandini, Gerry Block, John Convertino
Engineer [Assistant] – Barry Bongiovi, Garry Rindfuss, Glenn Rosenstein, Jeffry Henrickson, Jimmy Santis, Linda Randazzo
Executive-Producer – Louis Levin
Guitar [Solo] – Aldo Nova (tracks: 7), Bruce Kulick (tracks: 4), Michael Bolton (tracks: 1, 3)
Lead Guitar – Bruce Kulick (tracks: 2), Michael Bolton (tracks: 5), Scott Zito (tracks: 6)
Lead Vocals – Michael Bolton
Mastered By – Bob Ludwig
Mixed By – Gerry Block (tracks: 2, 6, 9), Tony Bongiovi (tracks: 1, 3 to 5, 7, 8)
Organ [Hammond] – Jan Mullaney (tracks: 7)
Photography By – David Kennedy
Piano – Doug Katsaros (tracks: 9), Jan Mullaney (tracks: 1 to 3, 8), Scott Zito (tracks: 6)
Producer – Gerry Block, Michael Bolton
Producer [Associate] – Jan Mullaney
Programmed By [Synthesizer] – Lloyd Landesman
Recorded By [Additional] – Tony Bongiovi
Rhythm Guitar – Bob Kulick (tracks: 2 to 5, 7 to 9), Craig Brooks (tracks: 1), Scott Zito (tracks: 6)
Synthesizer – Aldo Nova (tracks: 4), Doug Katsaros (tracks: 9), George Clinton (tracks: 9), Jan Mullaney (tracks: 2 to 5, 8), Mark Mangold (tracks: 1), Scott Zito (tracks: 6)
Technician [Drum Sound] – John Potoker


Tracklist:

01. Fools Game (03:56)
(C. Brooks, M. Mangold, M. Bolton)
02. She Did The Same Thing (03:52)
(M. Bolton)
03. Hometown Hero (03:41)
(M. Bolton, S. Zito)
04. Can't Hold On, Can't Let Go (03:22)
(M. Bolton)
05. Fighting For My Life (03:28)
(M. Bolton)
06. Paradise (04:00)
(M. Bolton, S. Zito)
07. Back In My Arms Again (03:14)
(B. Holland-L. Dozier-E. Holland)
08. Carrie (03:51)
(M. Bolton)
09. I Almost Believed You (04:05)
(M. Bolton, P. Henderson)

--------------------------------------------------------------------------------
Analyzed: Michael Bolton / Michael Bolton
--------------------------------------------------------------------------------

DR Peak RMS Duration Track
--------------------------------------------------------------------------------
DR12 -1.03 dB -15.05 dB 3:56 01-Fools Game
DR12 -2.21 dB -16.59 dB 3:53 02-She Did The Same Thing
DR12 -2.02 dB -17.11 dB 3:41 03-Hometown Hero
DR12 -1.83 dB -15.99 dB 3:22 04-Can't Hold On, Can't Let Go
DR12 -2.75 dB -16.10 dB 3:29 05-Fighting For My Life
DR12 -1.78 dB -15.28 dB 4:00 06-Paradise
DR12 -1.84 dB -15.15 dB 3:15 07-Back In My Arms Again
DR12 -1.77 dB -15.50 dB 3:52 08-Carrie
DR12 -3.64 dB -17.88 dB 4:06 09-I Almost Believed You
--------------------------------------------------------------------------------

Number of tracks: 9
Official DR value: DR12

Samplerate: 44100 Hz
Channels: 2
Bits per sample: 16
Bitrate: 924 kbps
Codec: FLAC
================================================================================

FLAC DOWNLOAD ~ Download FLAC


password: BlondStyle



Alternative download links

Turbobit

Related MP3 FLAC to Michael Bolton ‎- Michael Bolton (1983) FLAC
Feedback
All rights reserved.
WEBBG.com © 2000-2018