ORyan - Something Strong (1991) 1993, Japan
MP3 FLAC WMA APE HD

ORyan - Something Strong (1991) 1993, Japan

  • Genre: Rock, FLAC / APE
  • Formats: MP3 FLAC WMA HD APE
  • Album Size: 1613 mb.
  • Archive: ZIP RAR
Artist: O'Ryan
Title: Something Strong
Year Of Release: 1993-12-15
Label: Toshiba-EMI Ltd./Zero Corporation (Japan)
Genre: Rock, Melodic Rock, AOR
Quality: FLAC (img.+.cue+.log) | MP3 320kbps
Total Time: 41:24
Total Size: 351,36 | 152,91 Mb (Full Scans)
WebSite:

Merv "Spam" Spence is an Irish musician & Producer, best known for his work with Wishbone Ash and Trapeze. Spence moved to Staffordshire from Ireland in the late 1970s, and began playing with bands such as The Jury and Big Daisy. During Spence's time in local bands, he was spotted by Mel Galley, who promptly offered Spence the bassist and vocalist position in Trapeze, which had been left vacant since Peter Goalby had left to join Uriah Heep. Spence briefly toured with the band, and during his tenure recorded one album's worth of material, which – due to Galley's departure to replace Bernie Marsden in Whitesnake – remains unreleased. Several of the songs from these sessions however (Demos exist in bootleg form), would form the basis for Galley's Phenomena project. Following the break-up of Trapeze, Spence was offered an audition for Wishbone Ash while he was pitching demo material to various outlets. On the strength of his vocal range and enthusiasm, Spence became a member of the band. Spence would perform on one album by the band, 1985's Raw to the Bone. Spence left Wishbone Ash in 1986 "to pursue family matters". He has since released two solo albums under the name "O'Ryan" (his mother's maiden name), 1993's Something Strong and 1995's Initiate. ~Wikipedia~
Release of this CD: 1993, December, 15 [Toshiba-EMI Ltd./Zero Corporation (Japan), Cat.# XRCN-1085 / EAN: 4959407000853]
(p)(c) 1993 Parachute Music Ltd.
Manafactured by Toshiba-EMI Ltd. in Japan.
Made in Japan by Zero Corporation.


Credits:

Backing Vocals – Brigitte Petereit
Bass – Dieter Petereit
Drums – Curt Cress
Executive Producer – Mervyn Spence
Guitar – Peter Weihe
Keyboards – Dieter Petereit, Pit Löw
Lead Vocals – Mervyn Spence
Mastered By – David Glover, Mervyn Spence
Producer – Dieter Petereit, Mervyn Spence
Songwriter – Alfred Dubell (tracks: 1), Dieter Petereit, Mervyn Spence


Tracklist:

01. Stronger Than Love (04:24)
02. Reaction (04:34)
03. Don't Let It Slip Away (05:50)
04. Shaky Ground (04:02)
05. Something Strong (04:38)
06. Emer May (04:51)
07. Blood Upon A Stone (04:44)
08. Lying Eyes (04:13)
09. Deeper Than The Ocean (04:05)

--------------------------------------------------------------------------------
Analyzed: O'Ryan / Something Strong
--------------------------------------------------------------------------------

DR Peak RMS Duration Track
--------------------------------------------------------------------------------
DR10 0.00 dB -11.03 dB 4:24 01-Stronger Than Love
DR10 0.00 dB -11.57 dB 4:34 02-Reaction
DR11 0.00 dB -14.43 dB 5:50 03-Don't Let It Slip Away
DR10 0.00 dB -10.61 dB 4:02 04-Shaky Ground
DR9 0.00 dB -10.52 dB 4:41 05-Something Strong
DR10 0.00 dB -11.86 dB 4:51 06-Emer Day
DR9 0.00 dB -11.35 dB 4:44 07-Blood Upon A Stone
DR10 0.00 dB -11.01 dB 4:13 08-Lying Eyes
DR11 0.00 dB -12.78 dB 4:05 09-Deeper Than The Ocean
--------------------------------------------------------------------------------

Number of tracks: 9
Official DR value: DR10

Samplerate: 44100 Hz
Channels: 2
Bits per sample: 16
Bitrate: 961 kbps
Codec: FLAC
================================================================================

FLAC DOWNLOAD ~ Download FLAC


password: BlondStyle

MP3 DOWNLOAD ~ Download MP3




Alternative download links

Turbobit Turbobit

Related MP3 FLAC to ORyan - Something Strong (1991) 1993, Japan
Feedback
All rights reserved.
WEBBG.com © 2000-2018