Sonic Youth - The Diamond Sea (19952016) HDtracks
MP3 FLAC WMA APE HD

Sonic Youth - The Diamond Sea (19952016) HDtracks

Artist: Sonic Youth
Title: The Diamond Sea
Year Of Release: 2016
Label: Geffen Records
Genre: Rock, Alternative Rock, Indie Rock, Experimental Rock, Noise-Rock, Garage Punk
Quality: FLAC (tracks) [24Bit/192kHz]
Total Time: 33:37
Total Size: 1,35 Gb (Front Cover)
WebSite:

The Diamond Sea, originally released as a single on Sonic Youth's Washing Machine album, was later produced as a record featuring the radio edit of "Diamond Sea", the quirky "My Arena", a great Washing Machine outtake, and the "alternate ending" version of Diamond Sea that exceeds 25 minutes... ~HDtracks~
Release of the single: 2016 [12" LP Geffen Records, Cat.# B0024010-01, USA]
Release of this HDtracks edition: 2016 [Label: Geffen Records]
(p)(c) 2016 Geffen Records.

Credits:

Co-producer – John Siket
Design – Mike Mills
Mixed By – John Siket, Sonic Youth
Photography By – Lance Acord
Producer – Sonic Youth
Recorded By – John Siket, Sonic Youth
Remastered By – Golden Mastering


Tracklist:

01. The Diamond Sea (Radio Edit) (05:29)
02. My Arena (Previously Unreleased) (02:17)
03. The Diamond Sea (Album Version/Alternate Ending) (25:51)

--------------------------------------------------------------------------------
Analyzed: Sonic Youth / The Diamond Sea
--------------------------------------------------------------------------------

DR Peak RMS Duration Track
--------------------------------------------------------------------------------
DR9 0.00 dB -11.24 dB 5:29 01-The Diamond Sea (Radio Edit)
DR10 0.00 dB -11.56 dB 2:17 02-My Arena (Previously Unreleased)
DR8 0.00 dB -9.83 dB 25:51 03-The Diamond Sea (Album Version/Alternate Ending)
--------------------------------------------------------------------------------

Number of tracks: 3
Official DR value: DR9

Samplerate: 192000 Hz
Channels: 2
Bits per sample: 24
Bitrate: 5435 kbps
Codec: FLAC
================================================================================

FLAC 24/192 DOWNLOAD ~ Download 24/192 FLAC

Turbobit
|

password: BlondStyle

Alternative download links

Part 1 Part 2

Related MP3 FLAC to Sonic Youth - The Diamond Sea (19952016) HDtracks
Feedback
All rights reserved.
WEBBG.com © 2000-2018