Vibravoid - Triptamine (2010)
MP3 FLAC WMA APE HD

Vibravoid - Triptamine (2010)

  • Genre: Rock, FLAC / APE
  • Formats: MP3 FLAC WMA HD APE
  • Album Size: 1458 mb.
  • Archive: ZIP RAR
Artist: Vibravoid
Title Of Album: Triptamine
Year Of Release: 2010
Genre: Progressive Rock/Psychedelic Rock/Space Rock
Label: Nasoni Records
Country: Germany
Format: WV-Pack/image+.cue+.log+Covers/
Quality: Lossless
Total Time: 01:09:52
Total Size: 533 Mb
Tracklist:
---------
01. Leave It Behind [04:00.66]
02. Eye Shaking King [03:34.36]
03. Rauchkraut [04:24.04]
04. Ruckzuck [04:04.17]
05. Mother Sky [06:03.65]
06. Christmas On Earth [02:12.21]
07. Trip To Tripolis [03:22.68]
08. Save My Soul [03:14.15]
09. Sucked By Sound [04:41.45]
10. Cosmochaos [03:00.00]
11. Ali Baba [09:18.00]
12. Vibaephased [10:43.47]
13. Black Light Mushrooms [02:50.50]
14. Children Of The Void [03:50.14]
15. Random Generated Future [04:31.30]
Exact Audio Copy V1.0 beta 1 from 15. November 2010
EAC extraction logfile from 6. January 2011, 17:42
Vibravoid / Triptamine
Used drive : HL-DT-STDVDRAM GH22NS50 Adapter: 1 ID: 0
Read mode : Secure
Utilize accurate stream : Yes
Defeat audio cache : Yes
Make use of C2 pointers : No
Read offset correction : 667
Overread into Lead-In and Lead-Out : No
Fill up missing offset samples with silence : Yes
Delete leading and trailing silent blocks : No
Null samples used in CRC calculations : Yes
Used interface : Installed external ASPI interface
Used output format : Benutzerdefinierter Komprimierer
Selected bitrate : 1024 kBit/s
Quality : High
Add ID3 tag : No
Command line compressor : C:Program Files (x86)wavpackwavpack.exe
Additional command line options : -hm -w "Year=%y" -w "Genre=%m" %s %d
TOC of the extracted CD
Track | Start | Length | Start sector | End sector
---------------------------------------------------------
1 | 0:00.00 | 4:00.66 | 0 | 18065
2 | 4:00.66 | 3:34.36 | 18066 | 34151
3 | 7:35.27 | 4:24.04 | 34152 | 53955
4 | 11:59.31 | 4:04.17 | 53956 | 72272
5 | 16:03.48 | 6:03.65 | 72273 | 99562
6 | 22:07.38 | 2:12.21 | 99563 | 109483
7 | 24:19.59 | 3:22.68 | 109484 | 124701
8 | 27:42.52 | 3:14.15 | 124702 | 139266
9 | 30:56.67 | 4:41.45 | 139267 | 160386
10 | 35:38.37 | 3:00.00 | 160387 | 173886
11 | 38:38.37 | 9:18.00 | 173887 | 215736
12 | 47:56.37 | 10:43.47 | 215737 | 264008
13 | 58:40.09 | 2:50.50 | 264009 | 276808
14 | 61:30.59 | 3:50.14 | 276809 | 294072
15 | 65:20.73 | 4:31.30 | 294073 | 314427
Range status and errors
Selected range
Filename M:VVibravoidTriptamineLossLessVibravoid - Triptamine.wav
Peak level 100.0 %
Extraction speed 0.1 X
Range quality 100.0 %
Test CRC 14F00F30
Copy CRC 14F00F30
Copy OK
No errors occurred

AccurateRip summary

Track 1 not present in database
Track 2 not present in database
Track 3 not present in database
Track 4 not present in database
Track 5 not present in database
Track 6 not present in database
Track 7 not present in database
Track 8 not present in database
Track 9 not present in database
Track 10 not present in database
Track 11 not present in database
Track 12 not present in database
Track 13 not present in database
Track 14 not present in database
Track 15 not present in database

None of the tracks are present in the AccurateRip database
End of status report
==== Log checksum 282E17E290FC1953CBCE1A3377655769BD67AF6BFB25C8675CA3767B315F9D83 ====
Download




Alternative download links

Download|Letitbit.net

Related MP3 FLAC to Vibravoid - Triptamine (2010)
Feedback
All rights reserved.
WEBBG.com © 2000-2018