Be Bop Deluxe - Modern Music (1976) 1990, Reissue
MP3 FLAC WMA APE HD

Be Bop Deluxe - Modern Music (1976) 1990, Reissue

  • Genre: Rock, FLAC / APE, CD-Rip
  • Formats: MP3 FLAC WMA HD APE
  • Album Size: 1894 mb.
  • Archive: ZIP RAR
Artist: Be Bop Deluxe
Title: Modern Music
Year Of Release: 1990 (1976-09-03)
Label: Harvest / EMI Records Ltd. (UK)
Genre: Rock, Art Rock, Progressive Rock, Classic Rock
Quality: FLAC (img.+.cue+.log) | MP3 320kbps
Total Time: 57:12
Total Size: 390,09 | 159,97 Mb (Full Scans)
WebSite:

"Modern Music" is the fourth studio album by the British progressive rock group Be-Bop Deluxe. It was produced by band leader Bill Nelson and producer/engineer John Leckie. As AllMusic reviewer William Ruhlmann states in his review, "the album charted high in England and made the Top 100 in the U.S., but it was Be Bop's peak, not its breakthrough." ~Wikipedia~
Things had changed for Be Bop Deluxe by the time of the group's fourth album. The band that turned up in glam rock regalia on its 1974 debut, Axe Victim, was in suit and tie on the cover of Modern Music in 1976. Inside, the band's transformation into a sophisticated pop group seemed complete. Arrangements were still ornate, but the songs were dominated by their highly imagistic lyrics, and as often as not, Nelson was borrowing ideas from the Beatles. It didn't quite work, despite pleasant numbers such as "Orphans of Babylon" and "Kiss of Light," perhaps because a true pop sensibility requires a gift for simplicity that Nelson has never exhibited. The album charted high in England and made the Top 100 in the U.S., but it was Be Bop's peak, not its breakthrough. ~Review by William Ruhlmann~
Release of the album: 1976, September, 3 [LP Harvest, Cat.# SHSP 4058, UK]
Release of this CD: 1990 [CD Harvest/EMI Records Ltd. (UK), Cat.# CDP 7947312 / UPC: 0077779473120]
(p)(c) 1990 EMI Records Ltd.
Tracks 1-15 (p) 1976, track 16 (p) 1977, tracks 17-18 (p) 1978.
Printed in England.
Manufactured in England.


Credits:

Bass, Vocals, Percussion – Charles Tumahai
Drums, Percussion – Simon Fox
Keyboards, Percussion – Andrew Clark
Mastered By – Chris Blair
Producer, Engineer – John Leckie
Technician [Tape Operator] – Chris Blair, Haydn Bendall, Mark Vigars, Pat Stapley
Written-By, Producer, Guitar, Lead Vocals, Percussion – Bill Nelson


Tracklist:

01. Orphans Of Babylon (03:15)
02. Twilight Capers (04:25)
03. Kiss Of Light (03:11)
04. The Bird Charmers Destiny (01:20)
05. The Gold At The End Of My Rainbow (03:54)
06. Bring Back The Spark (03:38)
07. Modern Music (03:40)
08. Dancing In The Moonlight (All Alone) (02:09)
09. Honeymoon On Mars (01:22)
10. Lost In The Neon World (00:48)
11. Dance Of The Uncle Sam Hummanoids (02:12)
12. Modern Music (Reprise) (01:39)
13. Forbidden Lovers (05:03)
14. Down On Terminal Street (04:00)
15. Make The Music Magic (01:53)

Bonus Tracks:

16. Futurist Manifesto (04:32)
17. Quest For The Harvest Of The Stars (04:11)
18. Autosexual (05:52)

--------------------------------------------------------------------------------
Analyzed: Be Bop Deluxe / Modern Music
--------------------------------------------------------------------------------

DR Peak RMS Duration Track
--------------------------------------------------------------------------------
DR12 0.00 dB -14.53 dB 3:16 01-Orphans Of Babylon
DR12 -0.82 dB -15.29 dB 4:25 02-Twilight Capers
DR13 0.00 dB -14.88 dB 3:12 03-Kiss Of Light
DR10 -3.44 dB -18.26 dB 1:21 04-The Bird Charmers Destiny
DR12 -0.74 dB -14.77 dB 3:54 05-The Gold At The End Of My Rainbow
DR12 -0.57 dB -15.27 dB 3:38 06-Bring Back The Spark
DR12 -1.63 dB -16.02 dB 3:41 07-Modern Music
DR12 -0.32 dB -15.79 dB 2:10 08-Dancing In The Moonlight (All Alone)
DR11 -1.19 dB -14.28 dB 1:22 09-Honeymoon On Mars
DR11 -1.70 dB -14.62 dB 0:48 10-Lost In The Neon World
DR11 -1.61 dB -14.41 dB 2:12 11-Dance Of The Uncle Sam Humanoids
DR11 -1.45 dB -15.36 dB 1:40 12-Modern Music (Reprise)
DR12 0.00 dB -15.44 dB 5:03 13-Forbidden Lovers
DR11 -1.74 dB -16.38 dB 4:01 14-Down On Terminal Street
DR12 -4.54 dB -20.38 dB 1:53 15-Make The Music Magic
DR15 -1.33 dB -19.76 dB 4:32 16-Futurist Manifesto (Bonus Track)
DR14 -0.26 dB -17.55 dB 4:11 17-Quest For The Harvest Of The Stars (Bonus Track)
DR13 -1.49 dB -17.05 dB 5:53 18-Autosexual (Bonus Track)
--------------------------------------------------------------------------------

Number of tracks: 18
Official DR value: DR12

Samplerate: 44100 Hz
Channels: 2
Bits per sample: 16
Bitrate: 863 kbps
Codec: FLAC
================================================================================


FLAC DOWNLOAD ~ Download FLAC


password: BlondStyle

MP3 DOWNLOAD ~ Download MP3


Alternative download links

Turbobit Turbobit

Related MP3 FLAC to Be Bop Deluxe - Modern Music (1976) 1990, Reissue
Feedback
All rights reserved.
WEBBG.com © 2000-2018