Adriano Celentano - Tecadisk (1977) 1991, Remastered Reissue
MP3 FLAC WMA APE HD

Adriano Celentano - Tecadisk (1977) 1991, Remastered Reissue

Artist: Adriano Celentano
Title: Tecadisk
Year Of Release: 1991
Label: Clan Celentano / CGD S.p.A. A Time Warner Company (Italy)
Genre: Pop/Rock, Soul/Funk, Pop, Vocal, Disco
Quality: FLAC (img.+.cue+.log) | MP3 320kbps
Total Time: 36:02
Total Size: 257,04 | 86,38 Mb (Full Scans)
WebSite:

Studio album, sung in English. Originally published in 1977 on LP, released on CD in 1991.
Release of the album: 1977 [LP Clan Celentano, Cat.# CLN 86033, Italy]
Release of this CD: 1991 [CD Clan Celentano/CGD S.p.A. A Time Warner Company (Italy), Cat.# 9031 74420-2 / UPC: 090317442020]
(p) 1977 CGD
Made in Italy by Pozzoli CD S.p.A.

Credits:

Arranged By, Leader [Strings, Horns & Brass] – Anthony Rutherford Mimms
Arranged By, Producer, Written-By – Danny B. Besquet
Written-By – Miki Del Prete, Ronald Jackson (tracks: 2, 3, 5, 6)


Tracklist:

01. When Love... (06:50)
02. Yes, I Do (06:17)
03. Wartime Melodies (04:29)
04. Somebody Save Me (06:31)
05. Kiss Me Goodbye (05:51)
06. You Can Be Happy (06:05)

--------------------------------------------------------------------------------
Analyzed: ADRIANO CELENTANO / Tecadisk (Italy, WEA, 9031-74420-2)
--------------------------------------------------------------------------------

DR Peak RMS Duration Track
--------------------------------------------------------------------------------
DR12 0.00 dB -13.18 dB 6:50 01-When Love…
DR12 0.00 dB -14.24 dB 6:17 02-Yes I Do
DR12 -0.06 dB -14.88 dB 4:29 03-Wartime Melodies
DR12 0.00 dB -13.34 dB 6:31 04-Somebody Save Me
DR11 0.00 dB -13.35 dB 5:51 05-Kiss Me Goodbye
DR12 -1.12 dB -15.75 dB 6:05 06-You Can Be Happy
--------------------------------------------------------------------------------

Number of tracks: 6
Official DR value: DR12

Samplerate: 44100 Hz
Channels: 2
Bits per sample: 16
Bitrate: 952 kbps
Codec: FLAC
================================================================================


FLAC DOWNLOAD ~ Download FLAC


password: BlondStyle

MP3 DOWNLOAD ~ Download MP3


Alternative download links

Turbobit Turbobit

Related MP3 FLAC to Adriano Celentano - Tecadisk (1977) 1991, Remastered Reissue
Feedback
All rights reserved.
WEBBG.com © 2000-2018