Ali Campbell - Flying High (2009) APE MP3
MP3 FLAC WMA APE HD

Ali Campbell - Flying High (2009) APE MP3

  • Genre: Reggae, FLAC / APE
  • Formats: MP3 FLAC WMA HD APE
  • Album Size: 1486 mb.
  • Archive: ZIP RAR

Performer: Ali Campbell
Album: Flying High
Label: Jacaranda Music Ltd.
Catalog #: JACARCD1
Style: Reggae
Year: 2009
Format: MP3 | APE (image + .cue)
Bitrate: 320kbps | lossless
Amount of tracks: 13
Size RAR: ~ 137+387 mb
Upload: letitbit.net, depositfiles.com, filesonic.com

Tracklist:
-----------------
01. Nothing Ever Changes [04:48]
02. Out From Under [03:50]
03. Everways [05:01]
04. She's A Lady [04:31]
05. That's Supposed To Hurt [03:58]
06. What You Gonna Do Bout It [03:42]
07. Visions [05:08]
08. My Heart Is Gone [05:25]
09. Don't Shoot The Messenger [04:56]
10. It's A Crime [02:59]
11. Flying High (Instrumental) [03:31]
12. My Happiness [02:20]
13. Sly and Robbie (feat. Ali Campbell and Luciano) (bonus) [04:03]
--------------------------
Total time [54:12]
Exact Audio Copy V0.99 prebeta 4 from 23. January 2008
Отчёт EAC об извлечении, выполненном 2. ноября 2010, 13:52
Ali Campbell / Flying High
Дисковод: PIONEER DVD-RW DVR-218L Adapter: 0 ID: 0
Режим чтения : Достоверность
Использование точного потока : Да
Отключение кэша аудио : Да
Использование указателей C2 : Нет
Коррекция смещения при чтении : 6
Способность читать области Lead-in и Lead-out : Нет
Заполнение пропущенных сэмплов тишиной : Да
Удаление блоков с тишиной в начале и конце : Нет
При вычислениях CRC использовались нулевые сэмплы : Да
Интерфейс : Встроенный Win32-интерфейс для Win NT/2000
Выходной формат : Внутренние WAV-операции
Формат сэмплов : 44.100 Гц; 16 бит; стерео
TOC извлечённого CD
Трек | Старт | Длительность | Начальный сектор | Конечный сектор
---------------------------------------------------------------------
1 | 0:00.00 | 4:48.05 | 0 | 21604
2 | 4:48.05 | 3:50.04 | 21605 | 38858
3 | 8:38.09 | 5:01.02 | 38859 | 61435
4 | 13:39.11 | 4:31.10 | 61436 | 81770
5 | 18:10.21 | 3:57.62 | 81771 | 99607
6 | 22:08.08 | 3:42.39 | 99608 | 116296
7 | 25:50.47 | 5:07.67 | 116297 | 139388
8 | 30:58.39 | 5:24.68 | 139389 | 163756
9 | 36:23.32 | 4:56.12 | 163757 | 185968
10 | 41:19.44 | 2:58.43 | 185969 | 199361
11 | 44:18.12 | 3:31.17 | 199362 | 215203
12 | 47:49.29 | 2:19.72 | 215204 | 225700
13 | 50:09.26 | 4:03.03 | 225701 | 243928
Характеристики диапазона извлечения и сообщения об ошибках
Выбранный диапазон
Имя файла D:CampbellAli Campbell - Flying High.wav
Пиковый уровень 100.0 %
Качество диапазона 100.0 %
CRC теста 65A93B20
CRC копии 65A93B20
Копирование... OK
Ошибок не произошло

AccurateRip: сводка

Трек 1 нет в базе данных
Трек 2 нет в базе данных
Трек 3 нет в базе данных
Трек 4 нет в базе данных
Трек 5 нет в базе данных
Трек 6 нет в базе данных
Трек 7 нет в базе данных
Трек 8 нет в базе данных
Трек 9 нет в базе данных
Трек 10 нет в базе данных
Трек 11 нет в базе данных
Трек 12 нет в базе данных
Трек 13 нет в базе данных

Ни одного трека нет в базе AccurateRip
Конец отчёта

MP3
--DepositFiles.com--
--LetitBit.net--
--Filesonic.com--
FLAC
--Filesonic.com--




Alternative download links



Related MP3 FLAC to Ali Campbell - Flying High (2009) APE MP3
Feedback
All rights reserved.
WEBBG.com © 2000-2018