Belinda Carlisle - Singles Collection (1997) FLAC
MP3 FLAC WMA APE HD

Belinda Carlisle - Singles Collection (1997) FLAC

  • Genre: Pop, FLAC / APE
  • Formats: MP3 FLAC WMA HD APE
  • Album Size: 1339 mb.
  • Archive: ZIP RAR
Artist: Belinda Carlisle
Title Of Album: Singles Collection
Year Of Release: 1997
Genre: Pop
Quality: lossless
Bitrate: FLAC (image+.cue)
Total time: 01:10:50
Total Size: 487.6 MB
Tracklist:
01. Heaven Is A Place On Earth (4:07)
02. Leave A Light On (4:17)
03. Circle In The Sand (3:42)
04. Vision Of You (4:09)
05. La Luna (4:14)
06. Always Breaking My Heart (3:07)
07. (We Want) The Same Thing (4:17)
08. Summer Rain (4:13)
09. Live Your Life Be Free (4:23)
10. Do You Feel Like I Feel? (4:16)
11. Half The World (4:12)
12. In Too Deep (4:03)
13. Good Bye Day (4:42)
14. Runaway Horses (4:13)
15. Here Comes My Baby (4:35)
Bonus tracks:
16. The Ballad Of Lucy Jordan (unreleased) (4:07)
17. Jealous Guy (unreleased) (4:12)


Exact Audio Copy V1.0 beta 3 from 29. August 2011
Отчёт EAC об извлечении, выполненном 31. марта 2015, 16:58
Belinda Carlisle / Singles Collection
Дисковод: Optiarc BD RW BD-5300S Adapter: 6 ID: 0
Режим чтения : Достоверность
Использование точного потока : Да
Отключение кэша аудио : Да
Использование указателей C2 : Нет
Коррекция смещения при чтении : 6
Способность читать области Lead-in и Lead-out : Нет
Заполнение пропущенных сэмплов тишиной : Да
Удаление блоков с тишиной в начале и конце : Нет
При вычислениях CRC использовались нулевые сэмплы : Да
Интерфейс : Встроенный Win32-интерфейс для Win NT/2000
Выходной формат : Пользовательский кодировщик
Выбранный битрейт : 1024 kBit/s
Качество : Высокий
Добавление ID3-тега : Нет
Утилита сжатия : C:Program FilesExact Audio CopyFLACFLAC.EXE
Дополнительные параметры : -8 -V -T "ARTIST=%artist%" -T "TITLE=%title%" -T "ALBUM=%albumtitle%" -T "DATE=%year%" -T "TRACKNUMBER=%tracknr%" -T "GENRE=%genre%" -T "COMMENT=%comment%" -T "BAND=%albuminterpret%" -T "ALBUMARTIST=%albuminterpret%" -T "COMPOSER=%composer%" %haslyrics%--tag-from-file=LYRICS="%lyricsfile%"%haslyrics% -T "DISCNUMBER=%cdnumber%" -T "TOTALDISCS=%totalcds%" -T "TOTALTRACKS=%numtracks%" %hascover%--picture="%coverfile%"%hascover% %source% -o %dest%
TOC извлечённого CD
Трек | Старт | Длительность | Начальный сектор | Конечный сектор
---------------------------------------------------------------------
1 | 0:00.30 | 4:07.26 | 30 | 18580
2 | 4:07.56 | 4:16.42 | 18581 | 37822
3 | 8:24.23 | 3:41.61 | 37823 | 54458
4 | 12:06.09 | 4:08.58 | 54459 | 73116
5 | 16:14.67 | 4:14.06 | 73117 | 92172
6 | 20:28.73 | 3:07.23 | 92173 | 106220
7 | 23:36.21 | 4:17.01 | 106221 | 125496
8 | 27:53.22 | 4:12.52 | 125497 | 144448
9 | 32:05.74 | 4:23.35 | 144449 | 164208
10 | 36:29.34 | 4:15.49 | 164209 | 183382
11 | 40:45.08 | 4:11.67 | 183383 | 202274
12 | 44:57.00 | 4:03.06 | 202275 | 220505
13 | 49:00.06 | 4:42.36 | 220506 | 241691
14 | 53:42.42 | 4:13.33 | 241692 | 260699
15 | 57:56.00 | 4:34.69 | 260700 | 281318
16 | 62:30.69 | 4:07.19 | 281319 | 299862
17 | 66:38.13 | 4:12.37 | 299863 | 318799
Характеристики диапазона извлечения и сообщения об ошибках
Выбранный диапазон
Имя файла D:EACBelinda Carlisle - Singles CollectionBelinda Carlisle - Singles Collection.wav
Пиковый уровень 93.1 %
Скорость извлечения 3.8 X
Качество диапазона 100.0 %
CRC теста 53F28245
CRC копии 53F28245
Копирование... OK
Ошибок не произошло
AccurateRip: сводка
Трек 1 : извлечено точно (доверие 3) [6B1B75A7] (AR v1)
Трек 2 : извлечено точно (доверие 3) [9F9651B0] (AR v1)
Трек 3 : извлечено точно (доверие 3) [CCA40ED8] (AR v1)
Трек 4 : извлечено точно (доверие 3) [FCBB55A1] (AR v1)
Трек 5 : извлечено точно (доверие 3) [5F6AD52C] (AR v1)
Трек 6 : извлечено точно (доверие 3) [3C1CC4BA] (AR v1)
Трек 7 : извлечено точно (доверие 3) [A790FB3D] (AR v1)
Трек 8 : извлечено точно (доверие 3) [F78D1376] (AR v1)
Трек 9 : извлечено точно (доверие 3) [2E71E5FF] (AR v1)
Трек 10 : извлечено точно (доверие 3) [A7AED08F] (AR v1)
Трек 11 : извлечено точно (доверие 3) [B8949359] (AR v1)
Трек 12 : извлечено точно (доверие 3) [7EE164D7] (AR v1)
Трек 13 : извлечено точно (доверие 3) [883F17F1] (AR v1)
Трек 14 : извлечено точно (доверие 3) [1D8EED60] (AR v1)
Трек 15 : извлечено точно (доверие 3) [6EFD3BEB] (AR v1)
Трек 16 : извлечено точно (доверие 3) [159A00F9] (AR v1)
Трек 17 : извлечено точно (доверие 3) [C84FE12B] (AR v1)
Все треки извлечены точно
Конец отчёта
|



Alternative download links

Uploaded.net Rapidgator.net

Related MP3 FLAC to Belinda Carlisle - Singles Collection (1997) FLAC
Feedback
All rights reserved.
WEBBG.com © 2000-2018