Blue Zone U.K. - Jackie (US 12 Single) (1988)
MP3 FLAC WMA APE HD

Blue Zone U.K. - Jackie (US 12 Single) (1988)

Artist: Blue Zone U.K.
Title: Jackie (US 12" Single)
Year Of Release: 1988-07-26
Label: Arista Records (US)
Genre: Electronic, Synth-Pop
Quality: FLAC (tracks) [24bit/96kHz]
Total Time: 21:15
Total Size: 304,29 Mb (Scans)
WebSite:

Blue Zone UK was a 1980s British synth-pop band (simply called Blue Zone in the UK, Europe and Australia; but adding the “UK” due to a naming dispute in the United States). The group consisted of Lisa Stansfield (lead vocals), Ian Devaney (trombone, keyboards, guitar, backing vocals) and Andy Morris (trumpet, flugelhorn, electronic keyboards and backing vocals). “Jackie” was the third single taken from the bands only album “Big Thing” which was released in 1988. “Jackie” became the groups highest charting single reaching #19 Sweden, #54 US. In the bands native UK the single failed to chart. For the US single release non album track “Chance It” was used as the single’s b-side. After the release of “Jackie” the trio and label Arista decided to focus on Stansfield’s solo career. Morris would co-write and co-produce the first three Stansfield albums, before departing the trio. Devaney and Stansfield would eventually marry, and now own a music publishing business, and continue to write and record together.
Release of the Single: 1988, July, 26 [LP Arista Records, Cat.# ADI-9726, USA]
Note: "Chance It" Bonus Cut. Not available on album.
(c)(p) 1988 BMG Arista Records Ltd.
Manufactured and Distributed by Arista Records, Inc.
Printed in USA

Credits:
Producer – Paul Staveley O'Duffy
Remix, Producer [Additional Production] – Ric Wake (tracks: A1 to B2)
Written-By – Billy Steinberg (tracks: A1 to B2), Tom Kelly (tracks: A to B2)

Tracklist:
SIDE A:
A1. Jackie (Extended Dance Mix) (07:02)
SIDE B:
B1. Jackie (Single Version) (03:30)
B2. Jackie (Instrumental) (07:02)
B3. Chance It (03:42)
--------------------------------------------------------------------------------
Analyzed: Blue Zone U.K. / Jackie (US 12")
--------------------------------------------------------------------------------
DR Peak RMS Duration Track
--------------------------------------------------------------------------------
DR13 -0.20 dB -14.81 dB 7:02 01-Jackie (Extended Dance Mix)
DR12 -1.50 dB -15.49 dB 3:30 02-Jackie (Single Version)
DR13 -1.31 dB -16.04 dB 7:02 03-Jackie (Instrumental)
DR14 -1.20 dB -16.61 dB 3:42 04-Chance It
--------------------------------------------------------------------------------
Number of tracks: 4
Official DR value: DR13
Samplerate: 96000 Hz
Channels: 2
Bits per sample: 24
Bitrate: 2882 kbps
Codec: FLAC
================================================================================

FLAC DOWNLOAD ~ Download FLAC
password: BlondStyle



Alternative download links

Turbobit

Related MP3 FLAC to Blue Zone U.K. - Jackie (US 12 Single) (1988)
Feedback
All rights reserved.
WEBBG.com © 2000-2018