Olivia Newton-John - The Rumour (US 12 Single) (1988)
MP3 FLAC WMA APE HD

Olivia Newton-John - The Rumour (US 12 Single) (1988)

Artist: Olivia Newton-John
Title: The Rumour (US 12" Single)
Year Of Release: 1988
Label: MCA Records (USA)
Genre: Electronic, Pop, Synth-pop
Quality: FLAC (tracks) [24bit/96kHz]
Total Time: 18:54
Total Size: 411,12 Mb (Scans)
WebSite:

“The Rumour” was the first single released from Olivia Newton-John’s 1988 MCA Records album of the same name. “The Rumour” was produced by Elton John and James Newton Howard, and was written by Elton John and Bernie Taupin. The song also included backing vocals and piano by Elton John. The single only reached #62 on the US Billboard Hot 100 singles chart. "The Rumour" was issued as a 12" single featuring remixes by Shep Pettibone helping it become a top twenty dance hit peaking at #17 on the Billboard Dance Chart in October 1988. “The Rumour” also charted in Australia #35, Germany #36 and UK #86.
Release of the Single: 1988 [LP MCA Records, Cat.# MCA-23890, USA]
(p)(c) 1988 MCA Records, Inc.
Manufactured by MCA Records in USA

Credits:

Mixed By – Shep Pettibone, Steve Peck
Producer – Elton John, James Newton Howard
Remix [Additional Production] – Shep Pettibone
Written-By – Elton John & Bernie Taupin


Tracklist:

Side A:

A1. The Rumour (12" Extended Mix) (06:41)
A2. The Rumour (7" Mix) (03:59)

Side B:

B1. The Rumour (12" Dub) (04:14)
B2. The Rumour (Instrumental) (04:00)



--------------------------------------------------------------------------------
Analyzed: Olivia Newton-John / The Rumour (US 12")
--------------------------------------------------------------------------------

DR Peak RMS Duration Track
--------------------------------------------------------------------------------
DR14 -0.82 dB -16.44 dB 6:41 01-The Rumour (12" Extended Mix)
DR13 -1.96 dB -15.93 dB 3:59 02-The Rumour (7" Mix)
DR13 -0.70 dB -15.71 dB 4:14 03-The Rumour (12" Dub)
DR14 -1.66 dB -16.48 dB 4:00 04-The Rumour (Instrumental)
--------------------------------------------------------------------------------

Number of tracks: 4
Official DR value: DR14

Samplerate: 96000 Hz
Channels: 2
Bits per sample: 24
Bitrate: 2892 kbps
Codec: FLAC
================================================================================




Alternative download links

Turbobit

Related MP3 FLAC to Olivia Newton-John - The Rumour (US 12 Single) (1988)
Feedback
All rights reserved.
WEBBG.com © 2000-2018