B.J. Thomas ‎- Midnight Minute (1989) Japan
MP3 FLAC WMA APE HD

B.J. Thomas ‎- Midnight Minute (1989) Japan

  • Genre: Pop, Rock, FLAC / APE
  • Formats: MP3 FLAC WMA HD APE
  • Album Size: 1751 mb.
  • Archive: ZIP RAR
Artist: B.J. Thomas
Title: Midnight Minute
Year Of Release: 1989-10-10 (1989-08-15)
Label: Warner-Pioneer Corporation (Japan)
Genre: Pop/Rock, AOR, AC
Quality: FLAC (img.+.cue+.log) | MP3 320kbps
Total Time: 43:38
Total Size: 316,68 | 108,23 Mb (Full Scans)
WebSite:

B.J. Thomas has performed during four decades, sold more than 70 million records, won 5 Grammy Awards and scored 15 Top40 Pop/Rock Hits.
But all this success was achieved in the country/pop genre.
At the middle of the eighties, AOR rule the charts, and he was seduced by TV soundtracks guru STEVE DORFF to record the main theme for the soap opera 'Growing Pains'. The single (a duet with Jennifer Warnes) was a hit, and B.J. understood that was the direction to take. "Midnight Minute" is the only Adult Contemporary / WestCoast / AOR album recorded by Thomas. And what a good one. Glorious mid-tempo tunes, heartful ballads and a couple uptempo songs like 'If It Takes All Night' (written by STAN MEISSNER), the absolute winner here, TOP AOR. Thomas' voice is deep and distinctive, remembering BENNY MARDONES at some point. Needless to say that production is top notch, and the guitars of masters HUFF / LANDAU a pure pleasure. Also included here is the re-recorded version of 'As Long As We Got Each Other' with Dusty Springfield, used for "Growing Pains" fourth season. A must have to any AC / AOR fan.
Release of this album: 1989, August, 15 [LP Reprise Records, Cat.# 9 25898-1, USA]
Release of this CD: 1989, October, 10 [CD Warner-Pioneer Corporation (Japan), Cat.# 22P2-3003 / EAN: 4988014730037]
(p)(c) 1989 Reprise Records for the United States and WEA International Inc. for the world outside of the U.S.A.
Manufactured by Warner-Pioneer Corporation, Japan.
Made in Japan

Credits:

Vocals: Billy Joe "B. J." Thomas
Guitars: Dann Huff, Michael Landau, Dean Parks
Bass: Joe Chemay
Keyboards: Pat Coil, Randy Kerber
Drums: Paul Leim
Saxophone: Joel Peskin
Background vocals: Joe Chemay, Tony Sciuto, Julia Tillman Waters, Carmen Twillie, Luther Waters, Oren Waters, Maxine Willard Waters & Terry Williams
Produced by: John Bettis & Steve Dorff


Tracklist:

01. Half A Heart (03:34)
02. Don't Leave Love (Out There All Alone) (04:55)
03. Midnight Minute (04:06)
04. Second Chances (04:13)
05. One Last Time (05:20)
06. Someone Like You (04:17)
07. Young Hearts (04:05)
08. If It Takes All Night (04:25)
09. One Woman (04:20)
10. As Long As We Got Each Other (Theme From Growing Pains) (Duet with Dusty Springfield) (04:22)

--------------------------------------------------------------------------------
Analyzed: B.J. Thomas / Midnight Minute (22P2-3003)
––––––––––––––––––––––––––––––––––––––––

DR Peak RMS Duration Track
––––––––––––––––––––––––––––––––––––––––
DR9 -0.75 dB -13.26 dB 3:34 01-Half A Heart
DR10 -0.53 dB -13.66 dB 4:55 02-Don't Leave Love (Out There All Alone)
DR9 -0.72 dB -11.99 dB 4:06 03-Midnight Minute
DR10 -0.82 dB -12.86 dB 4:13 04-Second Chances
DR10 -0.44 dB -13.50 dB 5:20 05-One Last One More Time
DR10 -0.74 dB -12.57 dB 4:17 06-Someone Like You
DR10 -0.66 dB -12.98 dB 4:05 07-Young Hearts
DR9 -0.81 dB -11.87 dB 4:25 08-If It Takes All Night
DR10 -0.69 dB -13.04 dB 4:20 09-One Woman
DR10 -0.56 dB -12.09 dB 4:22 10-As Long As We Got Each Other (Theme From Growing Pains) (Duet With Dusty Spri…
––––––––––––––––––––––––––––––––––––––––

Number of tracks: 10
Official DR value: DR10

Samplerate: 44100 Hz
Channels: 2
Bits per sample: 16
Bitrate: 955 kbps
Codec: FLAC
================================================================================

FLAC DOWNLOAD ~ Download FLAC


password: BlondStyle

MP3 DOWNLOAD ~ Download MP3




Alternative download links

Turbobit Turbobit

Related MP3 FLAC to B.J. Thomas ‎- Midnight Minute (1989) Japan
Feedback
All rights reserved.
WEBBG.com © 2000-2018