Liza Minnelli - Love Pains (US 12 Single) (1990)
MP3 FLAC WMA APE HD

Liza Minnelli - Love Pains (US 12 Single) (1990)

Artist: Liza Minnelli
Title: Love Pains (US 12" Single)
Year Of Release: 1990
Label: Epic/CBS Records, Inc. (USA)
Genre: Pop, Electronic, Synth-pop, House
Quality: FLAC (tracks) [24bit/96kHz]
Total Time: 23:25
Total Size: 507,72 Mb (Scans)
WebSite:

"Love Pains" is the fourth and final single from Liza Minnelli's Results album. It was released in the US and Europe by Epic Records. The track was produced by the Pet Shop Boys and Julian Mendelsohn. Steve "Silk" Hurley was commissioned to create several mixes for "Love Pains" which are spread across the single's various formats. The single almost reached the top 40, stalling at #41 in the UK. In the US "Love Pains" peaked at #40 on the Billboard Dance chart making it her second US dance hit behind "Losing My Mind". "Love Pains" was originally recorded by Yvonne Elliman in 1979. ~Wikipedia~
Release of the Single: 1990, April [LP Epic, Cat.# 49 73166, USA]
(c)(p) 1990 CBS Records Inc.
Manufactured by Epic Records/CBS Records Inc.
Printed in U.S.A.


Credits:

Engineer [Mix] – "Silk"
Producer – Julian Mendelsohn, Pet Shop Boys
Remix, Producer [Additional Production], Edited By [Edits] – Steve "Silk" Hurley
Written-By – D. Walsh, M. Price, S. Barri


Tracklist:

Side A:

A1. Love Pains (Hurley’s Remix) (05:34)
A2. Love Pains (Hurley’s Radio Edit) (03:56)
A3. Love Pains (Hurley’s Instrumental) (04:08)

Side B:

B1. Love Pains (Deep House Pains) (05:06)
B2. Love Pains (Deep Dub) (04:41)

--------------------------------------------------------------------------------
Analyzed: Liza Minnelli / Love Pains (US 12")
--------------------------------------------------------------------------------

DR Peak RMS Duration Track
--------------------------------------------------------------------------------
DR12 -0.86 dB -13.97 dB 5:34 01-Love Pains (Hurley's Remix)
DR12 -1.21 dB -14.23 dB 3:56 02-Love Pains (Hurley's Radio Edit)
DR12 -0.52 dB -14.34 dB 4:08 03-Love Pains (Hurley's Instrumental)
DR12 -0.70 dB -14.95 dB 5:06 04-Love Pains (Deep House Pains)
DR12 -0.42 dB -14.98 dB 4:41 05-Love Pains (Deep Dub)
--------------------------------------------------------------------------------

Number of tracks: 5
Official DR value: DR12

Samplerate: 96000 Hz
Channels: 2
Bits per sample: 24
Bitrate: 2872 kbps
Codec: FLAC
================================================================================


FLAC 24/96 DOWNLOAD ~ Download 24/96 FLAC


password: BlondStyle
See also:





Alternative download links



Related MP3 FLAC to Liza Minnelli - Love Pains (US 12 Single) (1990)
Feedback
All rights reserved.
WEBBG.com © 2000-2018