Kylie Minogue - I Should Be So Lucky (US 12 Maxi-Single) (1988)
MP3 FLAC WMA APE HD

Kylie Minogue - I Should Be So Lucky (US 12 Maxi-Single) (1988)

Artist: Kylie Minogue
Title: I Should Be So Lucky (US 12" Maxi-Single)
Year Of Release: 1988 (1987-12-29)
Label: Geffen Records (USA)
Genre: Pop, Electronic, Hi NRG, Synth-pop
Quality: FLAC (tracks) [24bit/96kHz]
Total Time: 15:38
Total Size: 334,54 Mb (Scans)
WebSite:

"I Should Be So Lucky" is a song performed by Australian recording artist and songwriter Kylie Minogue from her debut studio album Kylie . Released on 29 December 1987 by Mushroom Records and PWL Records, the song became a worldwide breakthrough hit; its now-iconic image of Minogue on the front cover was shot by David Levine. The song was well received by music critics. The song was written and produced by Stock Aitken Waterman for Minogue, and they went on to produce Minogue's first four studio albums. "I Should Be So Lucky" was an international hit, reaching number one in several countries including Australia, United Kingdom, Japan, and Germany, as well as making the US Billboard Hot 100 top 30. ~Wikipedia~
Release of the Single: 1988 [LP Geffen Records, Cat.# 0-20914, USA]
(c) 1987 Mushroom Records Pty. Ltd. (p) 1987 Pete Waterman Ltd.
(p) 1988 The David Geffen Company
Made in U.S.A.

Credits:

Mixed By – Pete Hammond
Producer – Stock Aitken Waterman


Tracklist:

Side A:

A1. I Should Be So Lucky (Original Dance Mix) (06:04)

Side B:

B1. I Should Be So Lucky (Dance Remix) (06:10)
B2. I Should Be So Lucky (Instrumental) (03:24)



--------------------------------------------------------------------------------
Analyzed: Kylie Minogue / I Should Be So Lucky (US 12")
--------------------------------------------------------------------------------

DR Peak RMS Duration Track
--------------------------------------------------------------------------------
DR13 -0.89 dB -15.18 dB 6:04 01-I Should Be So Lucky (Original Dance Mix)
DR14 -0.86 dB -15.98 dB 6:10 02-I Should Be So Lucky (Dance Remix)
DR14 -0.70 dB -16.62 dB 3:24 03-I Should Be So Lucky (Instrumental)
--------------------------------------------------------------------------------

Number of tracks: 3
Official DR value: DR13

Samplerate: 96000 Hz
Channels: 2
Bits per sample: 24
Bitrate: 2859 kbps
Codec: FLAC
================================================================================




Alternative download links

Turbobit

Related MP3 FLAC to Kylie Minogue - I Should Be So Lucky (US 12 Maxi-Single) (1988)
Feedback
All rights reserved.
WEBBG.com © 2000-2018