Michael Sembello - Without Walls (1986) Japan
MP3 FLAC WMA APE HD

Michael Sembello - Without Walls (1986) Japan

  • Genre: Pop, Rock, FLAC / APE
  • Formats: MP3 FLAC WMA HD APE
  • Album Size: 1660 mb.
  • Archive: ZIP RAR
Artist: Michael Sembello
Title: Without Walls
Year Of Release: 1986-05-25
Label: A&M Records, Inc. (Japan)
Genre: Rock, Soft Rock, Pop Rock
Quality: FLAC (tracks+.cue+.log) | MP3 320kbps
Total Time: 49:24
Total Size: 328,77 | 121,67 Mb (Full Scans)
WebSite:

Best known as the composer and performer of the huge early-'80s dance hit "Maniac" (from the movie Flashdance), songwriter/guitarist/vocalist Michael Sembello has issued several solo albums over the years, in addition to producing, composing, and performing on other artist's recordings. Born in Philadelphia during 1954, Sembello got his start as part of Stevie Wonder's band in the early '70s, later doing session work for the likes of Sergio Mendes, the Jackson 5, Stephen Bishop, Randy Crawford, and David Sanborn, among others. But it was the soundtrack to the aforementioned 1983 movie Flashdance that brought Sembello his greatest acclaim, as the album has since gone on to be certified six times platinum. Sembello's solo albums have included such titles as 1983's Bossa Nova Hotel (which also included "Maniac"), 1986's Without Walls, 1992's Caravan of Dreams, and 1997's Backwards in Time, while he also found the time to launch a jazz outfit, the Bridge, in the late '90s (having issued a lone, self-titled debut). In addition, Sembello has either produced or written songs for Chaka Khan, George Benson, Gerardo, New Edition, the Temptations, and Donna Summer. ~Artist Biography by Greg Prato~
Release of the album: 1986 [LP A&M Records, Cat.# SP-5044, USA]
Release of this CD: 1986, May, 25 [CD A&M Records, Inc. (Japan), Cat.# 32XB-77 / EAN: T4988024100349]
(p)(c) 1986 A&M Records, Inc.
Printed in Japan

Credits:

Drums – Carlos Vega, Vinnie Colaiuta
Guitar – Bud Rizzo, Steve Rippley, Michael Sembello
Bass - Richard Rudolph
Harmonica – Stevie Wonder
Horns – Herb Alpert
Horn Section – William Reichenbach, Chuck Findley, David Boruff, Gary Grant, Larry Williams, Lew McCreary
Keyboards – Casey Young, Danny Sembello, Randy Waldman, Bobby Caldwell, Steve Porcaro, Michael Sembello
Mixed At - Lion Share Recording Studios
Mastered By - Bernie Grundman
Synth Programming - Dennis Matkosky, Steve Porcaro
Percussion – Ron Powell
Produced by - Michael Sembello and Richard Rudolph
Saxophone – David 'The Rev' Boruff
Trumpet, Flugelhorn – Randy Waldman
Backing Vocals – Bobby Caldwell, Cruz Sembello, Stevie Wonder
Vocals - Michael Sembello


Tracklist:

01. What You Really Want (04:29)
02. Last To Know (04:01)
03. Funkabilly Swing (04:30)
04. Is This The Way To Paradise (04:11)
05. Burn It Up (04:35)
06. Angelina (04:50)
07. Tear Down The Walls (03:41)
08. Gravity (Special Dance Mix) (06:13)
09. Wonder Where You Are (03:46)
10. Dangerous (03:54)
11. The Picture (05:15)

--------------------------------------------------------------------------------
Analyzed: Michael Sembello / Without Walls
--------------------------------------------------------------------------------

DR Peak RMS Duration Track
--------------------------------------------------------------------------------
DR13 -1.48 dB -15.85 dB 4:29 01-What You Really Want
DR9 -5.41 dB -17.21 dB 4:01 02-Last To Know
DR11 -3.92 dB -16.65 dB 4:30 03-Funkabilly Swing
DR10 -5.40 dB -18.30 dB 4:11 04-Is This The Way To Paradise
DR10 -6.46 dB -17.87 dB 4:35 05-Burn It Up
DR9 -6.44 dB -17.67 dB 4:50 06-Angelina
DR13 -0.12 dB -15.13 dB 3:41 07-Tear Down The Walls
DR12 -2.10 dB -16.52 dB 6:13 08-Gravity (Special Dance Mix)
DR10 -4.58 dB -17.38 dB 3:46 09-Wonder Where You Are
DR9 -5.53 dB -16.93 dB 3:54 10-Dangerous
DR13 -2.56 dB -18.34 dB 5:15 11-The Picture
--------------------------------------------------------------------------------

Number of tracks: 11
Official DR value: DR11

Samplerate: 44100 Hz
Channels: 2
Bits per sample: 16
Bitrate: 899 kbps
Codec: FLAC
================================================================================


FLAC DOWNLOAD ~ Download FLAC


password: BlondStyle

MP3 DOWNLOAD ~ Download MP3


Alternative download links

Turbobit Turbobit

Related MP3 FLAC to Michael Sembello - Without Walls (1986) Japan
Feedback
All rights reserved.
WEBBG.com © 2000-2018