Pepsi Shirlie - All Right Now (1987) 2011, Special Edition
MP3 FLAC WMA APE HD

Pepsi Shirlie - All Right Now (1987) 2011, Special Edition

Artist: Pepsi & Shirlie
Title: All Right Now (Special Edition)
Year Of Release: 2011-04-25 (1987-11-30)
Label: Cherry Pop (UK)
Genre: Pop, Electronic, Synth-pop
Quality: FLAC (img.+.cue+.log) | MP3 320kbps
Total Time: 01:19:12
Total Size: 595,94 | 189,11 Mb (Full Scans~212,36 Mb)
WebSite:

"All Right Now" is the 1987 debut album by former Wham! vocalists Pepsi & Shirlie. The album gave two Top 10 hits in the UK for the duo: "Heartache" (#2) and "Goodbye Stranger" (#9). The other three singles fared less well, hitting below the Top 40 of the UK Singles Chart (although "Can't Give Me Love" attained more respectable peaks of #21 in Ireland and #23 in the Flanders region of Belgium). Pepsi & Shirlie produced two of the tracks themselves: "What's Going On Inside Your Head?" and "Crime of Passion". After being expanded and remastered, the album was reissued by Cherry Pop in April 2011, with 8 bonus tracks. ~Wikipedia~
Digitally remastered and expanded edition of the British Pop duo's 1987 debut album. All Right Now features the classic #2 smash "Heartache" alongside the Top Ten follow-up "Goodbye Stranger" and three subsequent singles "Can't Give Me Love", "Hightime" and the title track - a cover of Free's 1970 rock anthem. This Special Edition contains a host of bonus material including sought-after 12" mixes and B-sides, several on CD for the first time. Written and produced by Stock Aitken Waterman, "Who's Gonna Catch You?" was intended for inclusion on All Right Now but ultimately went unreleased. Recently rediscovered on the original PWL studio tapes, it is exclusively made available here in both 7" and 12" form. As backing singers and dancers for Wham!, Pepsi DeMacque & Shirlie Holliman not only featured on several of the 80s' biggest hit records but also in the accompanying videos and concerts. They began recording as a duo in their own right in 1986, following Wham!s farewell show. ~Cherry Pop~
Release of the album: 1987, November, 30 [LP Polydor, Cat.# POLH 38, 833 724-1, UK]
Release of this CD: 2011, April, 25 [CD Cherry Pop (UK), Cat.# CRPOP84 / UPC: 5013929428423]
Note: Remastered Reissue with 8 bonus tracks.
(p) 1987, 1988 Polydor Ltd. (UK)
This compilation (c) 2011 Polydor Ltd. (UK) under licence to Cherry Pop, a Division of Cherry Red Records Ltd.
Licensed courtesy of Universal Music Operations Ltd.
Made in UK

Credits:

Art Direction – Alwyn Clayden
Design – Green Ink
Engineer [Digital Engineering] – Carlos Olms
Management [Represented By] – David Walker
Photography By – Spencer Rowell
Compiled By – Ian Usher, Tom Parker
Design – Tom Parker
Liner Notes – Tom Parker
Producer – Tambi Fernando (tracks: 1, 2, 4, 6, 7, 12, 14, 15, 16)
Remastered By – Tom Parker


Tracklist:

01. Heartache (03:39)
(Iris Fernando, Tambi Fernando, Wayne Brown)
02. Lovers' Revolution (03:37)
(Pepsi DeMacque, Shirlie Holliman, Tambi Fernando)
03. Can't Give Me Love (03:42)
(Iris Fernando, Tambi Fernando, Wayne Brown)
04. High Time (Jellybean Remix) (03:43)
(Nia Peeples, Paul Gurvitz)
05. What's Going On Inside Your Head? (04:20)
(Darryl K. Roberts, Marilyn McLeod)
06. Goodbye Stranger (03:35)
(Iris Fernando, Tambi Fernando, Wayne Brown)
07. Surrender (04:07)
(Pepsi DeMacque, Shirlie Holliman, Tambi Fernando)
08. Crime Of Passion (03:49)
(Ian Prince, Pepsi DeMacque)
09. All Right Now (03:38)
(Andy Fraser, Paul Rodgers)

Bonus Tracks:
10. Who's Gonna Catch You (When You Fall)? (03:26)
(Stock Aitken Waterman)
11. Feels Like The First Time (04:29)
(Chris Cameron, Pepsi DeMacque, Shirlie Holliman)
12. Dreaming (04:53)
(Pepsi DeMacque, Shirlie Holliman)
13. It's A Shame (04:20)
(Pepsi DeMacque, Phil Fearon, Shirlie Holliman)
14. Heartache (Dot & Daisy's Club Remix) (07:40)
(Iris Fernando, Tambi Fernando, Wayne Brown)
15. Goodbye Stranger (Extended Version) (07:22)
(Iris Fernando, Tambi Fernando, Wayne Brown)
16. Can't Give Me Love (Extended Version) (06:54)
(Iris Fernando, Tambi Fernando, Wayne Brown)
17. Who's Gonna Catch You (When You Fall)? (Extended Version) (05:59)
(Stock Aitken Waterman)

--------------------------------------------------------------------------------
Analyzed: Pepsi & Shirlie / All Right Now (Special Edition)
--------------------------------------------------------------------------------

DR Peak RMS Duration Track
--------------------------------------------------------------------------------
DR8 0.00 dB -8.77 dB 3:39 01-Heartache
DR7 -0.05 dB -9.25 dB 3:37 02-Lovers' Revolution
DR8 0.00 dB -9.79 dB 3:42 03-Can't Give Me Love
DR9 0.00 dB -10.71 dB 3:43 04-High Time (Jellybean Remix)
DR9 -0.06 dB -11.09 dB 4:20 05-What's Going On Inside Your Head?
DR8 -0.02 dB -9.06 dB 3:35 06-Goodbye Stranger
DR8 0.00 dB -9.83 dB 4:07 07-Surrender
DR9 0.00 dB -10.37 dB 3:49 08-Crime Of Passion
DR7 -0.07 dB -9.87 dB 3:38 09-All Right Now
DR8 -0.03 dB -9.69 dB 3:26 10-Who's Gonna Catch You (When You Fall)? (Bonus Track)
DR7 0.00 dB -8.88 dB 4:29 11-Feels Like The First Time (Bonus Track)
DR9 0.00 dB -10.26 dB 4:53 12-Dreaming (Bonus Track)
DR8 0.00 dB -9.44 dB 4:20 13-It's A Shame (Bonus Track)
DR8 0.00 dB -9.48 dB 7:40 14-Heartache (Dot & Daisy's Club Remix) (Bonus Track)
DR8 0.00 dB -9.84 dB 7:22 15-Goodbye Stranger (Extended Version) (Bonus Track)
DR8 0.00 dB -9.74 dB 6:54 16-Can't Give Me Love (Extended Version) (Bonus Track)
DR9 -0.01 dB -10.14 dB 5:59 17-Who's Gonna Catch You (When You Fall)? (Extended Version) (Bonus Track)
--------------------------------------------------------------------------------

Number of tracks: 17
Official DR value: DR8

Samplerate: 44100 Hz
Channels: 2
Bits per sample: 16
Bitrate: 999 kbps
Codec: FLAC
================================================================================


FLAC DOWNLOAD ~ Download FLAC


SCANS DOWNLOAD ~ Download SCANS


MP3 DOWNLOAD ~ Download MP3


password: BlondStyle

Alternative download links

Turbobit Turbobit Turbobit

Related MP3 FLAC to Pepsi Shirlie - All Right Now (1987) 2011, Special Edition
Feedback
All rights reserved.
WEBBG.com © 2000-2018