The Hollies - Moving Finger (1970) 1997, Remastered Reissue
MP3 FLAC WMA APE HD

The Hollies - Moving Finger (1970) 1997, Remastered Reissue

  • Genre: Pop, Rock, FLAC / APE
  • Formats: MP3 FLAC WMA HD APE
  • Album Size: 1773 mb.
  • Archive: ZIP RAR
Artist: The Hollies
Title: Moving Finger
Year Of Release: 1997 (1970-12-21)
Label: Sundazed Music (USA)
Genre: Rock, Pop Rock, Classic Rock
Quality: FLAC (img.+.cue+.log) | MP3 320kbps
Total Time: 53:17
Total Size: 371,71 | 155,34 Mb (Full Scans)
WebSite:

This is an almost straight-up reissue -- original cover and track lineup, but new liner notes and bonus cuts added to the Hollies' 1970 Epic album. By this time, Graham Nash had moved on to other pursuits, with Allan Clarke doing most of the vocalizing. Featuring the highlights "Gasoline Alley Bred" and "Too Young to Be Married," this new reissue also boasts the inclusion of "Separated," "I Wanna Shout," "Dandelion Wine," and "Mad Professor Blyth" as bonus tracks. ~Review by Cub Koda~
Release of the album: 1970, December, 21 [LP Parlophone, Cat.# PCS 7116, UK]
Release of this CD: 1997 [CD Sundazed Music (USA), Cat.# SC 6125 / UPC: 090771612526]
(c) 1997 Sundazed Music, Inc,
(p) 1997 Sony Music Entertainment inc.
Manufactured by Sony Music Special Products
Printed in U.S.A.


Credits:

Bass, Keyboards – Bernie Calvert
Drums – Bobby Elliott
Lead Guitar – Tony Hicks
Lead Vocals, Guitar – Allan Clarke
Mastered By – Bob Irwin
Rhythm Guitar – Terry Sylvester


Tracklist:

01. Survival Of The Fittest (03:05)
02. Confessions Of A Mind (05:45)
03. Lady Please (02:39)
04. Little Girl (02:59)
05. Too Young To Be Married (04:00)
06. Man Without A Heart (02:25)
07. Isn't It Nice (03:47)
08. Frightened Lady (03:14)
09. Marigold Gloria Swansong (05:27)
10. Perfect Lady Housewife (04:37)
11. Gasoline Alley Bred (03:56)

Bonus Tracks:
12. Separated (03:29)
13. I Wanna Shout (02:56)
14. Dandelion Wine (02:45)
15. Mad Professor Blyth (02:15)

--------------------------------------------------------------------------------
Analyzed: The Hollies / Moving Finger
--------------------------------------------------------------------------------

DR Peak RMS Duration Track
--------------------------------------------------------------------------------
DR10 -0.10 dB -12.64 dB 3:05 01-Survival of the fittest
DR11 -0.10 dB -14.88 dB 5:45 02-Confessions of a mind
DR12 -0.77 dB -15.08 dB 2:39 03-Lady please
DR11 -0.10 dB -13.38 dB 2:59 04-Little girl
DR12 -0.44 dB -17.32 dB 4:00 05-Too young to be married
DR11 -0.10 dB -13.67 dB 2:25 06-Man without a heart
DR11 -0.27 dB -14.08 dB 3:47 07-Isn't it nice
DR12 -0.10 dB -15.03 dB 3:14 08-Frightened lady
DR8 -1.57 dB -13.29 dB 5:27 09-Marigold gloria swansong
DR12 -0.10 dB -14.03 dB 4:37 10-Perfect lady housewife
DR9 -0.15 dB -11.69 dB 3:56 11-Gasoline alley bred
DR11 -0.10 dB -14.23 dB 3:29 12-Separated
DR12 -0.12 dB -15.86 dB 2:56 13-I wanna shout
DR11 -0.49 dB -13.89 dB 2:45 14-Dandelion wine
DR12 -0.30 dB -14.31 dB 2:15 15-Mad professor blyth
--------------------------------------------------------------------------------

Number of tracks: 15
Official DR value: DR11

Samplerate: 44100 Hz
Channels: 2
Bits per sample: 16
Bitrate: 853 kbps
Codec: FLAC
================================================================================




Alternative download links

Turbobit Turbobit

Related MP3 FLAC to The Hollies - Moving Finger (1970) 1997, Remastered Reissue
Feedback
All rights reserved.
WEBBG.com © 2000-2018