Jess Matt - Jess Matt (2015) Hi-Res
MP3 FLAC WMA APE HD

Jess Matt - Jess Matt (2015) Hi-Res

Artist: Jess & Matt
Title: Jess & Matt
Year Of Release: 2015-12-16
Label: Sony Music Entertainment
Genre: Pop
Quality: FLAC (tracks) [24bit/48kHz]
Total Time: 35:58
Total Size: 479,63 Mb (Front Cover)
WebSite:

"Jess & Matt" is the self-titled debut studio album by Jess & Matt. The album includes re-recorded tracks they performed on the seventh season of The X Factor Australia, where they came third. The album was released through Sony Music Australia on 16 December 2015. The album was preceded by the lead single "Nothing Matters", which debuted at number 29 on the ARIA Singles Chart. Lucy Barber-Hancock from Renowned for Sound said; "Jess and Matt provide the kind of well-trained pop vocals which are the ideal blank canvas to carry all of their chosen tunes, whilst still allowing their unique brand of folk-pop to flow right through the album in the form of nifty finger-picked guitars and the pure tone of their vocal acrobatics." ~Wikipedia~
Release of this album/Qobuz edition: 2015, December, 16 [Label: Sony Music Entertainment]
(p) 2015 Sony Music Entertainment Australia Pty Ltd.

Tracklist:

01. Nothing Matters (03:02)
02. Heart of Glass (03:16)
03. Do You Remember (03:40)
04. Dancing in the Dark (03:36)
05. Stay (03:08)
06. You're the One That I Want (03:06)
07. Need You Now (03:21)
08. Say Something (03:38)
09. Lay Me Down (03:05)
10. I'd Really Love to See You Tonight (02:50)
11. Sister Golden Hair (03:11)

--------------------------------------------------------------------------------
Analyzed: Jess & Matt / Jess & Matt
--------------------------------------------------------------------------------

DR Peak RMS Duration Track
--------------------------------------------------------------------------------
DR5 0.00 dB -7.29 dB 3:02 01-Nothing Matters
DR5 0.00 dB -7.33 dB 3:16 02-Heart of Glass
DR5 0.00 dB -7.16 dB 3:41 03-Do You Remember
DR5 0.00 dB -7.73 dB 3:37 04-Dancing in the Dark
DR5 0.00 dB -7.82 dB 3:08 05-Stay
DR6 0.00 dB -8.39 dB 3:06 06-You're the One That I Want
DR5 0.00 dB -7.94 dB 3:21 07-Need You Now
DR6 0.00 dB -8.12 dB 3:39 08-Say Something
DR5 0.00 dB -7.72 dB 3:06 09-Lay Me Down
DR5 0.00 dB -7.12 dB 2:51 10-I'd Really Love to See You Tonight
DR5 0.00 dB -6.47 dB 3:11 11-Sister Golden Hair
--------------------------------------------------------------------------------

Number of tracks: 11
Official DR value: DR5

Samplerate: 48000 Hz
Channels: 2
Bits per sample: 24
Bitrate: 1884 kbps
Codec: FLAC
================================================================================

FLAC 24/48 DOWNLOAD ~ Download 24/48 FLAC


password: BlondStyle

Alternative download links

Turbobit

Related MP3 FLAC to Jess Matt - Jess Matt (2015) Hi-Res
Feedback
All rights reserved.
WEBBG.com © 2000-2018