Jon Vangelis - Short Stories Japan Mini-LP (1980, remaster 2003)
MP3 FLAC WMA APE HD

Jon Vangelis - Short Stories Japan Mini-LP (1980, remaster 2003)

  • Genre: Other
  • Formats: MP3 FLAC WMA HD APE
  • Album Size: 1728 mb.
  • Archive: ZIP RAR
Artist: Jon & Vangelis
Title Of Album: Short Stories [Japan Mini-LP]
Year Of Release: 1980, remaster 2003
Label: Polydor/Universal Music, UICY-9375 (Japan Mini-LP)
Genre: Electronic, Art-Rock
Quality: Lossless / MP3
Bitrate: FLAC tracks + cue / 320 kbps
Total Time: 00:45:14
Total Size: 318 MB / 106 MB (3% rec.)
This is a great collaboration, a truly miraculous and deep set of songs, excellent disc by Jon Anderson (lead vocalist of the British progressive rock band Yes) and Vangelis (Greek electronic composer). For those of you who thought Vangelis was too musically complex, the this production by the one and only jon Anderson its your best introduction to Vangelis opus. This is a innocent, emotive, space filling and melodic album.
Tracklist
1. Curious Electric [06:42]
2. Each and Everyday [03:43]
3. Bird Song [01:26]
4. I Hear You Now [05:13]
5. The Road [04:32]
6. Far Away in Baagad [02:50]
7. Love Is [05:14]
8. One More Time [06:18]
9. Thunder [02:14]
10. A Play Within a Play [07:02]
Total time 00:45:14
Exact Audio Copy V0.99 prebeta 5 from 4. May 2009
EAC extraction logfile from 10. November 2010, 14:20
Jon & Vangelis / Short Stories [Japanese Mini LP]
Used drive : PLEXTOR CD-R PREMIUM2 Adapter: 1 ID: 0
Read mode : Secure
Utilize accurate stream : Yes
Defeat audio cache : Yes
Make use of C2 pointers : No
Read offset correction : 30
Overread into Lead-In and Lead-Out : Yes
Fill up missing offset samples with silence : Yes
Delete leading and trailing silent blocks : No
Null samples used in CRC calculations : Yes
Used interface : Installed external ASPI interface
Gap handling : Appended to previous track
Used output format : Internal WAV Routines
Sample format : 44.100 Hz; 16 Bit; Stereo
TOC of the extracted CD
Track | Start | Length | Start sector | End sector
---------------------------------------------------------
1 | 0:00.00 | 6:42.20 | 0 | 30169
2 | 6:42.20 | 3:43.17 | 30170 | 46911
3 | 10:25.37 | 1:25.55 | 46912 | 53341
4 | 11:51.17 | 5:13.10 | 53342 | 76826
5 | 17:04.27 | 4:31.38 | 76827 | 97189
6 | 21:35.65 | 2:50.05 | 97190 | 109944
7 | 24:25.70 | 5:13.45 | 109945 | 133464
8 | 29:39.40 | 6:18.05 | 133465 | 161819
9 | 35:57.45 | 2:14.17 | 161820 | 171886
10 | 38:11.62 | 7:02.15 | 171887 | 203551
Track 1
Filename C:_supang_NewAgeJon & Vangelis -1980- Short Stories (2004 Limited Edition) {UICY-9375 Japan}1. Curious Electric.wav
Pre-gap length 0:00:02.00
Peak level 97.7 %
Track quality 100.0 %
Test CRC 15B51699
Copy CRC 15B51699
Accurately ripped (confidence 3) [F04CAD59]
Copy OK
Track 2
Filename C:_supang_NewAgeJon & Vangelis -1980- Short Stories (2004 Limited Edition) {UICY-9375 Japan}2. Each and Everyday.wav
Pre-gap length 0:00:01.38
Peak level 97.7 %
Track quality 100.0 %
Test CRC 7224CBDA
Copy CRC 7224CBDA
Accurately ripped (confidence 3) [6398B574]
Copy OK
Track 3
Filename C:_supang_NewAgeJon & Vangelis -1980- Short Stories (2004 Limited Edition) {UICY-9375 Japan}3. Bird Song.wav
Peak level 97.7 %
Track quality 100.0 %
Test CRC BC974FEC
Copy CRC BC974FEC
Accurately ripped (confidence 3) [505FBCE5]
Copy OK
Track 4
Filename C:_supang_NewAgeJon & Vangelis -1980- Short Stories (2004 Limited Edition) {UICY-9375 Japan}4. I Hear You Now.wav
Pre-gap length 0:00:01.65
Peak level 97.7 %
Track quality 99.9 %
Test CRC 22C4DA51
Copy CRC 22C4DA51
Accurately ripped (confidence 3) [29371B72]
Copy OK
Track 5
Filename C:_supang_NewAgeJon & Vangelis -1980- Short Stories (2004 Limited Edition) {UICY-9375 Japan}5. The Road.wav
Pre-gap length 0:00:01.30
Peak level 97.7 %
Track quality 100.0 %
Test CRC E8A38915
Copy CRC E8A38915
Accurately ripped (confidence 3) [47522D45]
Copy OK
Track 6
Filename C:_supang_NewAgeJon & Vangelis -1980- Short Stories (2004 Limited Edition) {UICY-9375 Japan}6. Far Away in Baagad.wav
Pre-gap length 0:00:00.33
Peak level 97.7 %
Track quality 100.0 %
Test CRC 8A491A28
Copy CRC 8A491A28
Accurately ripped (confidence 3) [057C124F]
Copy OK
Track 7
Filename C:_supang_NewAgeJon & Vangelis -1980- Short Stories (2004 Limited Edition) {UICY-9375 Japan}7. Love Is.wav
Peak level 97.7 %
Track quality 100.0 %
Test CRC 5093E75B
Copy CRC 5093E75B
Accurately ripped (confidence 3) [715FE0A1]
Copy OK
Track 8
Filename C:_supang_NewAgeJon & Vangelis -1980- Short Stories (2004 Limited Edition) {UICY-9375 Japan}8. One More Time.wav
Pre-gap length 0:00:01.38
Peak level 97.7 %
Track quality 100.0 %
Test CRC 20095E5E
Copy CRC 20095E5E
Accurately ripped (confidence 3) [CA21AF40]
Copy OK
Track 9
Filename C:_supang_NewAgeJon & Vangelis -1980- Short Stories (2004 Limited Edition) {UICY-9375 Japan}9. Thunder.wav
Pre-gap length 0:00:00.63
Peak level 97.7 %
Track quality 100.0 %
Test CRC A95D1236
Copy CRC A95D1236
Accurately ripped (confidence 3) [AED3CE55]
Copy OK
Track 10
Filename C:_supang_NewAgeJon & Vangelis -1980- Short Stories (2004 Limited Edition) {UICY-9375 Japan}10. A Play Within a Play.wav
Pre-gap length 0:00:01.00
Peak level 97.7 %
Track quality 100.0 %
Test CRC 36B86C21
Copy CRC 36B86C21
Accurately ripped (confidence 3) [04B6175E]
Copy OK
All tracks accurately ripped
No errors occurred
End of status report
Composed by Vangelis and Jon Anderson. Lyrics By Jon Anderson (inspired by Jenny).
Personnel:
Jon Anderson – All vocals;
Vangelis – Keyboards, Synthesizers, Piano, Electronics;
Raphael Preston – Acoustic guitars.
Mastering: Hitoshi Takiguchi (Universal Mastering Studios). Remaster 2003.
Rock Legend Series (presented by Strange Days). Limited edition.
Download FLAC:
(filesonic.com)
| |
(uploaded.to)
| |
(wupload.com)
| |

Download MP3:
, ,




Alternative download links

Download part 1 Download part 2 Download part 3 Download part 1 Download part 2 Download part 3 uploaded.to wupload.com

Related MP3 FLAC to Jon Vangelis - Short Stories Japan Mini-LP (1980, remaster 2003)
Feedback
All rights reserved.
WEBBG.com © 2000-2018