Take That - Nobody Else
MP3 FLAC WMA APE HD

Take That - Nobody Else

  • Genre: Other
  • Formats: MP3 FLAC WMA HD APE
  • Album Size: 1398 mb.
  • Archive: ZIP RAR

Free download links


Take That - Nobody Else .zip
MP3 version ZIP archive

1398 downloads at 30 mb/s

Take That - Nobody Else .zip
FLAC/APE version ZIP archive

943 downloads at 22 mb/s
Artist: Take That
Title Of Album: Nobody Else
Year Of Release: 1995
Label: BMG
Genre: Pop
Quality: MP3 & FLAC (image+.cue+log+covers)
Bitrate: 320 kbps & lossless
Total Time: 50:40 min.
Total Size: 115 mb & 395 mb
WebSite:
Tracklist:
---------------------------
01. Sure (03:42)
02. Back For Good (04:020
03. Every Guy (03:59)
04. Sunday To Saturday (05:03)
05. Nobody Else (05:48)
06. Never Forget (05:12)
07. Hanging Onto Your Love (04:09)
08. Holding Back The Tears (05:29)
09. Hate It (03:41)
10. Lady Tonight (04:37)
11. The Day After Tomorrow (04:53)
MP3
--Rapidshare.com--
--Narod.ru--
--Letitbit.net--
--Shareflare.net--
--Unibytes.com--
FLAC
Exact Audio Copy V0.99 prebeta 5 from 4. May 2009
EAC extraction logfile from 12. April 2010, 15:09
Take That / Nobody Else (MCD)
Used drive : ASUS DRW-2014L1T Adapter: 2 ID: 0
Read mode : Secure
Utilize accurate stream : Yes
Defeat audio cache : Yes
Make use of C2 pointers : No
Read offset correction : 6
Overread into Lead-In and Lead-Out : No
Fill up missing offset samples with silence : Yes
Delete leading and trailing silent blocks : No
Null samples used in CRC calculations : Yes
Used interface : Native Win32 interface for Win NT & 2000
Used output format : Internal WAV Routines
Sample format : 44.100 Hz; 16 Bit; Stereo
TOC of the extracted CD
Track | Start | Length | Start sector | End sector
---------------------------------------------------------
1 | 0:00.00 | 3:42.20 | 0 | 16669
2 | 3:42.20 | 4:02.22 | 16670 | 34841
3 | 7:44.42 | 3:59.40 | 34842 | 52806
4 | 11:44.07 | 5:03.48 | 52807 | 75579
5 | 16:47.55 | 5:48.57 | 75580 | 101736
6 | 22:36.37 | 5:12.23 | 101737 | 125159
7 | 27:48.60 | 4:09.37 | 125160 | 143871
8 | 31:58.22 | 5:29.38 | 143872 | 168584
9 | 37:27.60 | 3:41.57 | 168585 | 185216
10 | 41:09.42 | 4:37.10 | 185217 | 206001
11 | 45:46.52 | 4:53.70 | 206002 | 228046
Range status and errors
Selected range
Filename D:MusicFLACCueEACTake That - Nobody Else.wav
Peak level 100.0 %
Range quality 100.0 %
Copy CRC 88977BA4
Copy OK
No errors occurred

AccurateRip summary

Track 1 accurately ripped (confidence 32) [3EA7FACE]
Track 2 accurately ripped (confidence 32) [8AFE6D47]
Track 3 accurately ripped (confidence 32) [F78201AE]
Track 4 accurately ripped (confidence 32) [3031A9B6]
Track 5 accurately ripped (confidence 32) [B8B3B778]
Track 6 accurately ripped (confidence 32) [3E65B929]
Track 7 accurately ripped (confidence 31) [2EE35BE4]
Track 8 accurately ripped (confidence 31) [229C8004]
Track 9 accurately ripped (confidence 31) [EFF902DC]
Track 10 accurately ripped (confidence 32) [F8B26E88]
Track 11 accurately ripped (confidence 33) [BD84E635]

All tracks accurately ripped
End of status report
AUDIOCHECKER v2.0 beta (build 457) - by Dester - [email protected]
~~~~~~~~~~~~~~~~~~~~~~~~~~~~~~~~~~
-=== DO NOT EDIT THIS FILE! ===-
Path: ...Take That - Nobody Else
1 -=- Take That - Nobody Else.wav -=- CDDA (99%)
245641764
--Rapidshare.com--
+ + +
--Narod.ru--
+ + +
--Letitbit.net--
+ + +
--Shareflare.net--
+ + +
--Unibytes.com--
+ + +




Alternative download links

Download | Download Download | Download Download | Download Download | Download Download | Download Download часть 1 Download часть 2 Download часть 3 Download часть 4 Download часть 1 Download часть 2 Download часть 3 Download часть 4 Download часть 1 Download часть 2 Download часть 3 Download часть 4 Download часть 1 Download часть 2 Download часть 3 Download часть 4 Download часть 1 Download часть 2 Download часть 3 Download часть 4

Related MP3 FLAC to Take That - Nobody Else
Feedback
All rights reserved.
WEBBG.com © 2000-2018