Tanita Tikaram - AVO Session, Basel (2011) HDTV 720p
MP3 FLAC WMA APE HD

Tanita Tikaram - AVO Session, Basel (2011) HDTV 720p

  • Genre: Other
  • Formats: MP3 FLAC WMA HD APE
  • Album Size: 1747 mb.
  • Archive: ZIP RAR
Artist: Tanita Tikaram
Title Of Album: AVO Session, Basel
Year Of Release: 2011
Label: C Major Ent.
Genre: Pop Rock, Singer-songwriter
Format: HDTV, mkv
Video: MPEG4 Video (H264) 1280x720
Audio: Dolby AC3 48000Hz 6ch/MPEG Audio 48000Hz stereo
Total Time: 54 min 08 sec
Total Size: 4.3 Gb
WebSite:
Tracklist:
01. Cathedral Song
02. Wonderful Shadow
03. Little Sister Leaving Town
04. All Things To You
05. Good Tradition
06. Poor Cow
07. Valentine Heart
08. I Might Be Crying
09. Make The Day
10. Twist In My Sobriety
11. Dust On My Shoes
12. One Kiss
13. As I Love You
Tanita Tikaram’ song ‘Twist in My Sobriety’ was a massive hit in 1988 and left an indelible mark on her image. With the happy song ‘Good Tradition’, she was able to prove that she also knows how to deliver up-tempo beats, but people were always looking for a sombre, slightly melancholy mood. Beautiful music for a cosy autumn evening, songs with a touch of folk which sometimes drift over into the blues: This is the other Tanita Takaram who has continued quietly on her way, far away from the charts. It is a good thing that the AVO SESSION Basel gives audiences the chance to rediscover this well-known artist anew.
General
Unique ID : 218141292104637552555946297199389721581 (0xA41C7C127DEF07C38AB8B1C8D15E43ED)
Complete name : E:Tanita Tikaram 2011 AVO Session Basel [HDTV 720p]Tanita Tikaram - AVO, Session Basel HDTV 720p.mkv
Format : Matroska
Format version : Version 2
File size : 4.13 GiB
Duration : 54mn 8s
Overall bit rate mode : Variable
Overall bit rate : 10.9 Mbps
Encoded date : UTC 2012-07-28 15:44:34
Writing application : mkvmerge v5.5.0 ('Healer') built on Apr 6 2012 21:43:24
Writing library : libebml v1.2.3 + libmatroska v1.3.0
Video
ID : 1
Format : AVC
Format/Info : Advanced Video Codec
Format profile : [email protected]
Format settings, CABAC : Yes
Format settings, ReFrames : 3 frames
Codec ID : V_MPEG4/ISO/AVC
Duration : 54mn 8s
Bit rate mode : Variable
Bit rate : 10.0 Mbps
Maximum bit rate : 40.0 Mbps
Width : 1 280 pixels
Height : 720 pixels
Display aspect ratio : 16:9
Frame rate mode : Constant
Frame rate : 50.000 fps
Standard : Component
Color space : YUV
Chroma subsampling : 40
Bit depth : 8 bits
Scan type : Progressive
Bits/(Pixel*Frame) : 0.217
Stream size : 3.78 GiB (92%)
Language : English
Default : Yes
Forced : No
Color primaries : BT.709
Transfer characteristics : BT.709
Matrix coefficients : BT.709
Color range : Limited
Audio #1
ID : 2
Format : AC-3
Format/Info : Audio Coding 3
Mode extension : CM (complete main)
Format settings, Endianness : Big
Codec ID : A_AC3
Duration : 54mn 8s
Bit rate mode : Constant
Bit rate : 448 Kbps
Channel(s) : 6 channels
Channel positions : Front: L C R, Side: L R, LFE
Sampling rate : 48.0 KHz
Bit depth : 16 bits
Compression mode : Lossy
Stream size : 173 MiB (4%)
Title : AC3 6 ch
Language : English
Default : Yes
Forced : No
Audio #2
ID : 3
Format : MPEG Audio
Format version : Version 1
Format profile : Layer 2
Codec ID : A_MPEG/L2
Codec ID/Hint : MP2
Duration : 54mn 8s
Bit rate mode : Constant
Bit rate : 256 Kbps
Channel(s) : 2 channels
Sampling rate : 48.0 KHz
Compression mode : Lossy
Stream size : 99.1 MiB (2%)
Title : MP2 2ch
Language : English
Default : No
Forced : No
♫ MKV
▪ ● ▪ ● ▪ ●



Alternative download links

Uploaded Nitroflare Uploadable

Related MP3 FLAC to Tanita Tikaram - AVO Session, Basel (2011) HDTV 720p
Feedback
All rights reserved.
WEBBG.com © 2000-2018