Nik Tyndall - Horizonte Einklang (1991)
MP3 FLAC WMA APE HD

Nik Tyndall - Horizonte Einklang (1991)

Artist: Nik Tyndall
Title Of Album: Horizonte & Einklang
Year Of Release: 1991
Label: Sky Records
Genre: New Age, Meditative
Quality: APE (image+.cue) + log
Bitrate: Lossless
Total Time: 00:58:47
Total Size: 286 Mb
Beautiful meditative music
Tracklist:
01. Horizonte (6:16)
02. Sehnsucht (6:50)
03. Ruhe (3:58)
04. Mediterranean Summer (7:36)
05. Wannsee (4:37)
06. Far Out (3:50)
07. Havel (12:08)
08. Edge Of The Sky (8:03)
09. Einklang (5:26)
Exact Audio Copy V0.99 prebeta 5 from 4. May 2009
EAC extraction logfile from 20. May 2011, 22:23
Nik Tyndall / Horizonte & Einklang, Musik zur Entspannung
Used drive : PIONEER DVD-RW DVR-116D Adapter: 4 ID: 0
Read mode : Secure
Utilize accurate stream : Yes
Defeat audio cache : Yes
Make use of C2 pointers : No
Read offset correction : 96
Overread into Lead-In and Lead-Out : No
Fill up missing offset samples with silence : Yes
Delete leading and trailing silent blocks : No
Null samples used in CRC calculations : Yes
Used interface : Installed external ASPI interface
Used output format : Internal WAV Routines
Sample format : 44.100 Hz; 16 Bit; Stereo
TOC of the extracted CD
Track | Start | Length | Start sector | End sector
---------------------------------------------------------
1 | 0:00.00 | 6:16.25 | 0 | 28224
2 | 6:16.25 | 6:50.45 | 28225 | 59019
3 | 13:06.70 | 3:58.50 | 59020 | 76919
4 | 17:05.45 | 7:36.55 | 76920 | 111174
5 | 24:42.25 | 4:37.12 | 111175 | 131961
6 | 29:19.37 | 3:50.23 | 131962 | 149234
7 | 33:09.60 | 12:08.20 | 149235 | 203854
8 | 45:18.05 | 8:03.50 | 203855 | 240129
9 | 53:21.55 | 5:26.20 | 240130 | 264599
Range status and errors
Selected range
Filename C:+EAC+Nik Tyndall - Horizonte & Einklang, Musik zur Entspannung.wav
Peak level 100.0 %
Range quality 100.0 %
Test CRC 0BE296E1
Copy CRC 0BE296E1
Copy OK
No errors occurred
AccurateRip summary
Track 1 not present in database
Track 2 not present in database
Track 3 not present in database
Track 4 not present in database
Track 5 not present in database
Track 6 not present in database
Track 7 not present in database
Track 8 not present in database
Track 9 not present in database
None of the tracks are present in the AccurateRip database
End of status report
FileSonic
Oron



Alternative download links

DOWNLOAD

Related MP3 FLAC to Nik Tyndall - Horizonte Einklang (1991)
Feedback
All rights reserved.
WEBBG.com © 2000-2018