Bonnie Bramlett - Im Still The Same (2002)
MP3 FLAC WMA APE HD

Bonnie Bramlett - Im Still The Same (2002)

  • Genre: Music, Blues, FLAC / APE
  • Formats: MP3 FLAC WMA HD APE
  • Album Size: 1367 mb.
  • Archive: ZIP RAR
Artist: Bonnie Bramlett
Title Of Album: I'm Still The Same
Year Of Release: 2002
Label: Audium Records
Genre: Blues
Quality: APE (*.ape)
Bitrate: lossless
Total Time: 46:59.12
Total Size: 328 MB
Tracklist:
01. Hurt [0:03:40.47]
02. What If [0:03:26.40]
03. No Man's Land [0:05:01.60]
04. Made A Believer Out Of Me [0:03:56.08]
05. Superstar [0:05:55.67]
06. Give It Time [0:04:22.53]
07. Closer To You [0:04:41.25]
08. You Belong To Me [0:04:31.02]
09. Sure Sign Of Something [0:02:59.10]
10. Cry Me A River [0:04:16.58]
11. I'm Still The Same [0:04:07.17]
Exact Audio Copy V0.99 prebeta 5 from 4. May 2009
Отчёт EAC об извлечении, выполненном 7. марта 2011, 9:50
Bonnie Bramlett / I'm Still The Same
Дисковод: TEAC CD-W552G Adapter: 1 ID: 1
Режим чтения : Достоверность
Использование точного потока : Да
Отключение кэша аудио : Да
Использование указателей C2 : Нет
Коррекция смещения при чтении : 6
Способность читать области Lead-in и Lead-out : Нет
Заполнение пропущенных сэмплов тишиной : Да
Удаление блоков с тишиной в начале и конце : Нет
При вычислениях CRC использовались нулевые сэмплы : Да
Интерфейс : Установленный внешний ASPI-интерфейс
Выходной формат : Внутренние WAV-операции
Формат сэмплов : 44.100 Гц; 16 бит; стерео
TOC извлечённого CD
Трек | Старт | Длительность | Начальный сектор | Конечный сектор
---------------------------------------------------------------------
1 | 0:00.00 | 3:40.47 | 0 | 16546
2 | 3:40.47 | 3:26.40 | 16547 | 32036
3 | 7:07.12 | 5:01.60 | 32037 | 54671
4 | 12:08.72 | 3:56.08 | 54672 | 72379
5 | 16:05.05 | 5:55.67 | 72380 | 99071
6 | 22:00.72 | 4:22.53 | 99072 | 118774
7 | 26:23.50 | 4:41.25 | 118775 | 139874
8 | 31:05.00 | 4:31.02 | 139875 | 160201
9 | 35:36.02 | 2:59.10 | 160202 | 173636
10 | 38:35.12 | 4:16.58 | 173637 | 192894
11 | 42:51.70 | 4:07.17 | 192895 | 211436
Характеристики диапазона извлечения и сообщения об ошибках
Выбранный диапазон
Имя файла D:MusicCDTorrentBonnie Bramlett - I'm Still The SameBonnie Bramlett - I'm Still The Same.wav
Пиковый уровень 100.0 %
Качество диапазона 100.0 %
CRC теста 96D3D51F
CRC копии 96D3D51F
Копирование... OK
Ошибок не произошло
AccurateRip: сводка
Трек 1 нет в базе данных
Трек 2 нет в базе данных
Трек 3 нет в базе данных
Трек 4 нет в базе данных
Трек 5 нет в базе данных
Трек 6 нет в базе данных
Трек 7 нет в базе данных
Трек 8 нет в базе данных
Трек 9 нет в базе данных
Трек 10 нет в базе данных
Трек 11 нет в базе данных
Ни одного трека нет в базе AccurateRip
Конец отчёта




Alternative download links



Related MP3 FLAC to Bonnie Bramlett - Im Still The Same (2002)
Feedback
All rights reserved.
WEBBG.com © 2000-2018