Neil Zaza - Melodica (2005)
MP3 FLAC WMA APE HD

Neil Zaza - Melodica (2005)

Artist: Neil Zaza
Title Of Album: Melodica
Year Of Release: 2005
Label: MASCOT RECORDS
Genre: Guitar Virtuoso, Instrumental Rock, Shred, Melodic
Quality: FLAC (image+.cue) + log
Bitrate: Lossless
Total Time: 01:13:2
Total Size: 510 Mb
2005 album from the melodic instrumental guitarist who has become well known for his technical accuracy and adaptation of classical works by Bach and Mozart into his own blend of neo-classical, melodic, guitar instrumentals.
Tracklist:
01. On with the Show [0:00:28.45]
02. This Time [0:05:40.65]
03. All My Life [0:05:40.35]
04. As I Go Before You [0:05:53.12]
05. Melodica [0:05:21.39]
06. Breadstick [0:04:57.38]
07. Ship of Dreams [0:06:27.29]
08. The Flow [0:04:45.02]
09. I Can See Miracles [0:06:41.36]
10. Across the Sands [0:05:53.35]
11. Rena [0:03:58.26]
12. Very Important Cat Things [0:05:17.62]
13. Everything About You [0:03:43.49]
14. Forgot to Make Her Mine [0:06:38.50]
15. Goodbye [0:01:52.13]
Exact Audio Copy V0.99 prebeta 5 from 4. May 2009
Отчёт EAC об извлечении, выполненном 2. декабря 2010, 21:18
Neil Zaza / Melodica
Дисковод: PLEXTOR DVDR PX-880SA Adapter: 4 ID: 2
Режим чтения : Достоверность
Использование точного потока : Да
Отключение кэша аудио : Да
Использование указателей C2 : Нет
Коррекция смещения при чтении : 6
Способность читать области Lead-in и Lead-out : Нет
Заполнение пропущенных сэмплов тишиной : Да
Удаление блоков с тишиной в начале и конце : Нет
При вычислениях CRC использовались нулевые сэмплы : Да
Интерфейс : Установленный внешний ASPI-интерфейс
Выходной формат : Внутренние WAV-операции
Формат сэмплов : 44.100 Гц; 16 бит; стерео
TOC извлечённого CD
Трек | Старт | Длительность | Начальный сектор | Конечный сектор
---------------------------------------------------------------------
1 | 0:00.00 | 0:28.45 | 0 | 2144
2 | 0:28.45 | 5:40.65 | 2145 | 27709
3 | 6:09.35 | 5:40.35 | 27710 | 53244
4 | 11:49.70 | 5:53.12 | 53245 | 79731
5 | 17:43.07 | 5:21.39 | 79732 | 103845
6 | 23:04.46 | 4:57.38 | 103846 | 126158
7 | 28:02.09 | 6:27.29 | 126159 | 155212
8 | 34:29.38 | 4:45.02 | 155213 | 176589
9 | 39:14.40 | 6:41.36 | 176590 | 206700
10 | 45:56.01 | 5:53.35 | 206701 | 233210
11 | 51:49.36 | 3:58.26 | 233211 | 251086
12 | 55:47.62 | 5:17.62 | 251087 | 274923
13 | 61:05.49 | 3:43.49 | 274924 | 291697
14 | 64:49.23 | 6:38.50 | 291698 | 321597
15 | 71:27.73 | 1:52.13 | 321598 | 330010
Характеристики диапазона извлечения и сообщения об ошибках
Выбранный диапазон
Имя файла M:СВОИNeil ZazaMelodica - 2005Neil Zaza - Melodica.wav
Пиковый уровень 100.0 %
Качество диапазона 100.0 %
CRC теста 119DA1E6
CRC копии 119DA1E6
Копирование... OK
Ошибок не произошло
AccurateRip: сводка
Трек 1 точное извлечение (доверие 2) [52AE4F37]
Трек 2 точное извлечение (доверие 2) [EA9AFCD1]
Трек 3 точное извлечение (доверие 2) [C2085F3E]
Трек 4 точное извлечение (доверие 2) [5C9F9565]
Трек 5 точное извлечение (доверие 2) [BF3F7F66]
Трек 6 точное извлечение (доверие 2) [829766CA]
Трек 7 точное извлечение (доверие 2) [7EB4291E]
Трек 8 точное извлечение (доверие 2) [25C29602]
Трек 9 точное извлечение (доверие 2) [64A9001C]
Трек 10 точное извлечение (доверие 2) [09C4E5AA]
Трек 11 точное извлечение (доверие 2) [48A265C2]
Трек 12 точное извлечение (доверие 2) [F6BA45BC]
Трек 13 точное извлечение (доверие 2) [25A7551E]
Трек 14 точное извлечение (доверие 2) [D6989079]
Трек 15 точное извлечение (доверие 2) [2C222F91]
Все треки извлечены точно
Конец отчёта
FileSonic
Oron



Alternative download links

DOWNLOAD

Related MP3 FLAC to Neil Zaza - Melodica (2005)
Feedback
All rights reserved.
WEBBG.com © 2000-2018