Sweet Nuj - Sweet Think (2008)
MP3 FLAC WMA APE HD

Sweet Nuj - Sweet Think (2008)

Artist: Sweet Nuj
Title Of Album: Sweet Think
Year Of Release: 2008
Label: GMM GRAMMY
Genre: Vocal, Jazz-pop
Quality: FLAC (image+.cue) + log
Bitrate: Lossless
Total Time: 42:17
Total Size: 320 Mb
"Sweet Think" - the album by Sweet Nuj, released in 2008. Includes 10 beautifully performed songs of the genre Jazz-pop. The long-awaited album, which will meet your expectations!
Tracklist:
01. Lucky In Love [0:03:47.19]
02. Unexpected! [0:03:36.73]
03. Broken Heart [0:05:11.24]
04. Lover or Rival [0:03:48.31]
05. Regret To Love [0:04:41.61]
06. So In Love [0:04:17.12]
07. First Date [0:04:10.20]
08. Only You [0:03:13.54]
09. Always & Forever [0:04:48.12]
10. Well Aware [0:04:41.50]
Exact Audio Copy V1.0 beta 1 from 15. November 2010
EAC extraction logfile from 28. June 2011, 5:06
Sweet Nuj / Sweet Think
Used drive : PIONEER DVD-RW DVR-118L Adapter: 4 ID: 0
Read mode : Secure
Utilize accurate stream : Yes
Defeat audio cache : Yes
Make use of C2 pointers : No
Read offset correction : 6
Overread into Lead-In and Lead-Out : No
Fill up missing offset samples with silence : Yes
Delete leading and trailing silent blocks : No
Null samples used in CRC calculations : Yes
Used interface : Native Win32 interface for Win NT & 2000
Used output format : Internal WAV Routines
Sample format : 44.100 Hz; 16 Bit; Stereo
TOC of the extracted CD
Track | Start | Length | Start sector | End sector
---------------------------------------------------------
1 | 0:00.00 | 3:47.19 | 0 | 17043
2 | 3:47.19 | 3:36.73 | 17044 | 33316
3 | 7:24.17 | 5:11.24 | 33317 | 56665
4 | 12:35.41 | 3:48.31 | 56666 | 73796
5 | 16:23.72 | 4:41.61 | 73797 | 94932
6 | 21:05.58 | 4:17.12 | 94933 | 114219
7 | 25:22.70 | 4:10.20 | 114220 | 132989
8 | 29:33.15 | 3:13.54 | 132990 | 147518
9 | 32:46.69 | 4:48.12 | 147519 | 169130
10 | 37:35.06 | 4:41.50 | 169131 | 190255
Range status and errors
Selected range
Filename E:Sweet Nuj - Sweet Think.wav
Peak level 100.0 %
Extraction speed 0.1 X
Range quality 100.0 %
Test CRC 1CB7BEC9
Copy CRC 1CB7BEC9
Copy OK
No errors occurred
AccurateRip summary
Track 1 accurately ripped (confidence 2) [953A0577]
Track 2 accurately ripped (confidence 2) [15F6F129]
Track 3 accurately ripped (confidence 2) [7E82D899]
Track 4 accurately ripped (confidence 2) [F6328C47]
Track 5 accurately ripped (confidence 2) [9F27BBCF]
Track 6 accurately ripped (confidence 2) [3A1F1016]
Track 7 accurately ripped (confidence 2) [C2850C92]
Track 8 accurately ripped (confidence 2) [26B93C97]
Track 9 accurately ripped (confidence 2) [67EEFB38]
Track 10 accurately ripped (confidence 2) [C052FFE5]
All tracks accurately ripped
End of status report
FileSonic
Wupload



Alternative download links

DOWNLOAD

Related MP3 FLAC to Sweet Nuj - Sweet Think (2008)
Feedback
All rights reserved.
WEBBG.com © 2000-2018