The Rich Fabec Band - RFB 3 (2011)
MP3 FLAC WMA APE HD

The Rich Fabec Band - RFB 3 (2011)

Artist: The Rich Fabec Band
Title Of Album: RFB 3
Year Of Release: 2011
Label: Mercy Seat Records
Genre: Blues-Rock
Quality: FLAC (image+.cue) + log
Bitrate: Lossless
Total Time: 42:31
Total Size: 252 Mb
Music critics have called Rich Fabec the future of the blues. Rich’s Blues are a unique blend of traditional Chicago and Texas Blues like B.B. King, Buddy Guy, Albert King and Albert Collins; and more contemporary sounds like, Stevie Ray Vaughn, and Robben Ford and Jimi Hendrix.
Tracklist:
01. Do you Love Me? (2:37)
02. C'mon out Tonight (2:50)
03. Under Her Spell (3:41)
04. Good Vibes (3:08)
05. Cryin' Shame (3:52)
06. Letter Never Sent (4:30)
07. Sonya Boogie (4:03)
08. Sweet Marie (4:43)
09. One Thing (3:36)
10. Little Luv (2:55)
11. Not Gonna do it to Me (3:14)
12. Wha? (3:16)
Exact Audio Copy V0.99 prebeta 4 from 23. January 2008
Отчёт EAC об извлечении, выполненном 16. августа 2011, 4:42
The Rich Fabec Band / RFB 3
Дисковод: PLEXTOR DVDR PX-880SA Adapter: 1 ID: 1
Режим чтения : Достоверность
Использование точного потока : Да
Отключение кэша аудио : Да
Использование указателей C2 : Нет
Коррекция смещения при чтении : 6
Способность читать области Lead-in и Lead-out : Нет
Заполнение пропущенных сэмплов тишиной : Да
Удаление блоков с тишиной в начале и конце : Нет
При вычислениях CRC использовались нулевые сэмплы : Да
Интерфейс : Встроенный Win32-интерфейс для Win NT/2000
Выходной формат : Пользовательский кодировщик
Выбранный битрейт : 1024 kBit/s
Качество : Высокий
Добавление ID3-тэга : Нет
Утилита сжатия : C:Program FilesExact Audio CopyFLACFLAC.EXE
Дополнительные параметры : -6 -V -T "ARTIST=%a" -T "TITLE=%t" -T "ALBUM=%g" -T "DATE=%y" -T "TRACKNUMBER=%n" -T "GENRE=%m" -T "COMMENT=%e" %s -o %d
TOC извлечённого CD
Трек | Старт | Длительность | Начальный сектор | Конечный сектор
---------------------------------------------------------------------
1 | 0:00.00 | 2:37.36 | 0 | 11810
2 | 2:37.36 | 2:50.10 | 11811 | 24570
3 | 5:27.46 | 3:41.55 | 24571 | 41200
4 | 9:09.26 | 3:08.63 | 41201 | 55363
5 | 12:18.14 | 3:52.55 | 55364 | 72818
6 | 16:10.69 | 4:30.38 | 72819 | 93106
7 | 20:41.32 | 4:03.00 | 93107 | 111331
8 | 24:44.32 | 4:43.73 | 111332 | 132629
9 | 29:28.30 | 3:36.21 | 132630 | 148850
10 | 33:04.51 | 2:55.28 | 148851 | 162003
11 | 36:00.04 | 3:14.47 | 162004 | 176600
12 | 39:14.51 | 3:16.42 | 176601 | 191342
Характеристики диапазона извлечения и сообщения об ошибках
Выбранный диапазон
Имя файла J:The Rich Fabec Band - RFB 3(flac)The Rich Fabec Band - RFB 3.wav
Пиковый уровень 100.0 %
Качество диапазона 99.9 %
CRC теста 3614B0F3
CRC копии 3614B0F3
Копирование... OK
Ошибок не произошло
AccurateRip: сводка
Трек 1 нет в базе данных
Трек 2 нет в базе данных
Трек 3 нет в базе данных
Трек 4 нет в базе данных
Трек 5 нет в базе данных
Трек 6 нет в базе данных
Трек 7 нет в базе данных
Трек 8 нет в базе данных
Трек 9 нет в базе данных
Трек 10 нет в базе данных
Трек 11 нет в базе данных
Трек 12 нет в базе данных
Ни одного трека нет в базе AccurateRip
Конец отчёта
FileSonic
Wupload



Alternative download links

DOWNLOAD

Related MP3 FLAC to The Rich Fabec Band - RFB 3 (2011)
Feedback
All rights reserved.
WEBBG.com © 2000-2018