Roland Van Campenhout - Never Enough (2008)
MP3 FLAC WMA APE HD

Roland Van Campenhout - Never Enough (2008)

  • Genre: Music, Blues, FLAC / APE
  • Formats: MP3 FLAC WMA HD APE
  • Album Size: 1890 mb.
  • Archive: ZIP RAR
Artist: Roland Van Campenhout
Title Of Album: Never Enough
Year Of Release: 2008
Label: EMI
Genre: Blues
Quality: APE (image+.cue) + log
Bitrate: Lossless
Total Time: 40:00
Total Size: 222 Mb
Roland Van Campenhout is a Belgian blues man. His latest album called “never enough” was produced by Admiral Freebee.
Tracklist:
1 Hissing O' the Earth
2 Midnight Star
3 Never Enough
4 Male Prostitute
5 In My Time
6 Officer, Kiss Me Please
7 It All Has to Do with It
8 Fire In The Morning
9 Never Too Soon
10 Almost Home
Exact Audio Copy V1.0 beta 1 from 15. November 2010
Отчёт EAC об извлечении, выполненном 3. апреля 2011, 17:11
Roland Van Campenhout / Never Enough
Дисковод: ASUS DRW-24B1ST Adapter: 2 ID: 0
Режим чтения : Достоверность
Использование точного потока : Да
Отключение кэша аудио : Да
Использование указателей C2 : Нет
Коррекция смещения при чтении : 6
Способность читать области Lead-in и Lead-out : Нет
Заполнение пропущенных сэмплов тишиной : Да
Удаление блоков с тишиной в начале и конце : Нет
При вычислениях CRC использовались нулевые сэмплы : Да
Интерфейс : Встроенный Win32-интерфейс для Win NT/2000
Выходной формат : Внутренние WAV-операции
Формат сэмплов : 44.100 Гц; 16 бит; стерео
TOC извлечённого CD
Трек | Старт | Длительность | Начальный сектор | Конечный сектор
---------------------------------------------------------------------
1 | 0:00.00 | 3:07.43 | 0 | 14067
2 | 3:07.43 | 2:41.67 | 14068 | 26209
3 | 5:49.35 | 2:34.13 | 26210 | 37772
4 | 8:23.48 | 4:54.46 | 37773 | 59868
5 | 13:18.19 | 2:50.24 | 59869 | 72642
6 | 16:08.43 | 2:37.22 | 72643 | 84439
7 | 18:45.65 | 8:15.68 | 84440 | 121632
8 | 27:01.58 | 3:01.70 | 121633 | 135277
9 | 30:03.53 | 3:48.38 | 135278 | 152415
10 | 33:52.16 | 6:08.14 | 152416 | 180029
Характеристики диапазона извлечения и сообщения об ошибках
Выбранный диапазон
Имя файла D:Моя музыка_Записи_Новая папкаRoland Van Campenhout - Never Enough.wav
Пиковый уровень 100.0 %
1.2 X
Качество диапазона 100.0 %
CRC теста 20A4A0F8
CRC копии 20A4A0F8
Копирование... OK
Ошибок не произошло
AccurateRip: сводка
Трек 1 точное извлечение (доверие 3) [8BED502B]
Трек 2 точное извлечение (доверие 3) [01E3DC42]
Трек 3 точное извлечение (доверие 3) [40BF2497]
Трек 4 точное извлечение (доверие 3) [48D41D54]
Трек 5 точное извлечение (доверие 3) [5E272D5E]
Трек 6 точное извлечение (доверие 3) [72D1CC8B]
Трек 7 точное извлечение (доверие 3) [8A68DD3C]
Трек 8 точное извлечение (доверие 3) [1ECED2E7]
Трек 9 точное извлечение (доверие 3) [842BEAF4]
Трек 10 точное извлечение (доверие 3) [DAFD0B9B]
Все треки извлечены точно
Конец отчёта
FileSonic
Turbobit



Alternative download links

DOWNLOAD

Related MP3 FLAC to Roland Van Campenhout - Never Enough (2008)
Feedback
All rights reserved.
WEBBG.com © 2000-2018