Izzy Edible - Make Us Famous (2011)
MP3 FLAC WMA APE HD

Izzy Edible - Make Us Famous (2011)

Artist: Izzy Edible
Title Of Album: Make Us Famous
Year Of Release: 2011
Label: Purple Arms
Genre: Hard Rock
Quality: FLAC (image+.cue) + log
Bitrate: Lossless
Total Time: 42:04
Total Size: 300 Mb
First album of young group from Phoenix, Arizona.
Tracklist:
01. Prometheus (4:28)
02. Come On, Come (4:05)
03. Nuclear Weapons & Blowjobs (4:52)
04. Peppershaker (7:13)
05. Long Way To Memphis (3:11)
06. Superhuman (4:14)
07. Rock-N'-Roll Babylon (5:07)
08. Daydreamer (8:50)
Exact Audio Copy V0.99 prebeta 4 from 23. January 2008
Отчёт EAC об извлечении, выполненном 6. марта 2011, 9:26
Izzy Edible / Make Us Famous
Дисковод: PLEXTOR DVDR PX-880SA Adapter: 1 ID: 1
Режим чтения : Достоверность
Использование точного потока : Да
Отключение кэша аудио : Да
Использование указателей C2 : Нет
Коррекция смещения при чтении : 6
Способность читать области Lead-in и Lead-out : Нет
Заполнение пропущенных сэмплов тишиной : Да
Удаление блоков с тишиной в начале и конце : Нет
При вычислениях CRC использовались нулевые сэмплы : Да
Интерфейс : Установленный внешний ASPI-интерфейс
Выходной формат : Пользовательский кодировщик
Выбранный битрейт : 1024 kBit/s
Качество : Высокий
Добавление ID3-тэга : Нет
Утилита сжатия : C:Program FilesExact Audio CopyFLACFLAC.EXE
Дополнительные параметры : -5 -V -T "ARTIST=%a" -T "TITLE=%t" -T "ALBUM=%g" -T "DATE=%y" -T "TRACKNUMBER=%n" -T "GENRE=%m" -T "COMMENT=%e" %s -o %d
TOC извлечённого CD
Трек | Старт | Длительность | Начальный сектор | Конечный сектор
---------------------------------------------------------------------
1 | 0:00.00 | 4:28.60 | 0 | 20159
2 | 4:28.60 | 4:05.20 | 20160 | 38554
3 | 8:34.05 | 4:52.71 | 38555 | 60525
4 | 13:27.01 | 7:13.56 | 60526 | 93056
5 | 20:40.57 | 3:11.56 | 93057 | 107437
6 | 23:52.38 | 4:14.51 | 107438 | 126538
7 | 28:07.14 | 5:07.13 | 126539 | 149576
8 | 33:14.27 | 8:50.05 | 149577 | 189331
Характеристики диапазона извлечения и сообщения об ошибках
Выбранный диапазон
Имя файла I:Izzy Edible-Make Us Famous(flac)Izzy Edible - Make Us Famous.wav
Пиковый уровень 100.0 %
Качество диапазона 100.0 %
CRC теста 4D07C44C
CRC копии 4D07C44C
Копирование... OK
Ошибок не произошло
AccurateRip: сводка
Трек 1 нет в базе данных
Трек 2 нет в базе данных
Трек 3 нет в базе данных
Трек 4 нет в базе данных
Трек 5 нет в базе данных
Трек 6 нет в базе данных
Трек 7 нет в базе данных
Трек 8 нет в базе данных
Ни одного трека нет в базе AccurateRip
Конец отчёта
FileSonic.com
Turbobit.net



Alternative download links

DOWNLOAD

Related MP3 FLAC to Izzy Edible - Make Us Famous (2011)
Feedback
All rights reserved.
WEBBG.com © 2000-2018