Zero Cult - Ikebana (2007) Flac
MP3 FLAC WMA APE HD

Zero Cult - Ikebana (2007) Flac


Performer: Zero Cult
Album: Ikebana
Label: Cosmicleaf Records
Genre: Downtempo, Ambient
Year: December 25, 2007
Format: FLAC (image + .cue)
Bitrate: lossless
Covers: in archive
Amount of tracks: 10
Size RAR: ~ 482.33 mb

Tracklist:
-----------------
01. Nitrogen [7:59.46]
02. Part Of Rapture [7:54.52]
03. Violet Room [7:05.63]
04. Echoes (Cydelix Remix) [7:23.16]
05. Z-51 [7:05.46]
06. Utopia Train (Side Liner Remix) [5:42.59]
07. Chemicalove [8:23.01]
08. Serenity [7:57.44]
09. Rainspotting [7:33.22]
10. Monolife (D. Batistatos Remix) [4:41.18]
--------------------------
Total time [71:48]
Exact Audio Copy V0.99 prebeta 5 from 4. May 2009
EAC extraction logfile from 26. September 2009, 20:25
Zero Cult / Ikebana
Used drive : PIONEER DVD-RW DVR-111 Adapter: 3 ID: 0
Read mode : Secure
Utilize accurate stream : Yes
Defeat audio cache : Yes
Make use of C2 pointers : No
Read offset correction : 48
Overread into Lead-In and Lead-Out : No
Fill up missing offset samples with silence : Yes
Delete leading and trailing silent blocks : No
Null samples used in CRC calculations : Yes
Used interface : Installed external ASPI interface
Used output format : User Defined Encoder
Selected bitrate : 1024 kBit/s
Quality : High
Add ID3 tag : No
Command line compressor : C:Program FilesExact Audio CopyFlacflac.exe
Additional command line options : -8 -V -T "ARTIST=%a" -T "ALBUM=%g" -T "DATE=%y" -T "GENRE=%m" %s -o %d
TOC of the extracted CD
Track | Start | Length | Start sector | End sector
---------------------------------------------------------
1 | 0:00.00 | 7:59.46 | 0 | 35970
2 | 7:59.46 | 7:54.52 | 35971 | 71572
3 | 15:54.23 | 7:05.63 | 71573 | 103510
4 | 23:00.11 | 7:23.16 | 103511 | 136751
5 | 30:23.27 | 7:05.46 | 136752 | 168672
6 | 37:28.73 | 5:42.59 | 168673 | 194381
7 | 43:11.57 | 8:23.01 | 194382 | 232107
8 | 51:34.58 | 7:57.44 | 232108 | 267926
9 | 59:32.27 | 7:33.22 | 267927 | 301923
10 | 67:05.49 | 4:41.18 | 301924 | 323016
Range status and errors
Selected range
Filename F:tempnnmZero Cult - Ikebana.wav
Peak level 100.0 %
Range quality 99.9 %
Test CRC DEBA931C
Copy CRC DEBA931C
Copy OK
No errors occurred
AccurateRip summary
Track 1 accurately ripped (confidence 5) [0770A370]
Track 2 accurately ripped (confidence 5) [22A052A9]
Track 3 accurately ripped (confidence 5) [390C4597]
Track 4 accurately ripped (confidence 5) [F9E80718]
Track 5 accurately ripped (confidence 5) [290F8E78]
Track 6 accurately ripped (confidence 5) [A6307135]
Track 7 accurately ripped (confidence 5) [118519BA]
Track 8 accurately ripped (confidence 5) [4526B0FD]
Track 9 accurately ripped (confidence 5) [45C8D59E]
Track 10 accurately ripped (confidence 5) [EB053340]
All tracks accurately ripped
End of status report
AUDIOCHECKER v2.0 beta (build 457) - by Dester - [email protected]
~~~~~~~~~~~~~~~~~~~~~~~~~~~~~~~~~~
-=== НЕ РЕДАКТИРУЙТЕ ЭТОТ ФАЙЛ! ===-
Путь: ...Zero Cult - Ikebana [Cosmicleaf Records, CLCD010]
1 -=- Zero Cult - Ikebana [Cosmicleaf Records, CLCD010].flac -=- CDDA (100%)
141247731
--LetitBit.net--
--DepositFiles.com--
--hotfile.com--




Alternative download links



Related MP3 FLAC to Zero Cult - Ikebana (2007) Flac
Feedback
All rights reserved.
WEBBG.com © 2000-2018