Berget Lewis - Finally (2007)
MP3 FLAC WMA APE HD

Berget Lewis - Finally (2007)

Artist: Berget Lewis
Title Of Album: Finally
Year Of Release: 2007
Label: Rock Steady Media
Genre: Jazz, Funk/Soul, Pop
Quality: FLAC (image+.cue) + log
Bitrate: Lossless
Total Time: 00:46:59.69
Total Size: 329 Mb
Funk and soul singer from Holland.
Tracklist:
01 Finally (Intro) 0:37
02 Feel This Way Again 3:14
03 I'll Do Anything 4:40
04 Where I Belong (Wanna Fly) 3:22
05 Sooner Or Later 3:45
06 Let Me See Ya Move 2:50
07 Boogie Night 3:34
08 All About Me 4:05
09 This Is What You Want 3:33
10 I've Tried 3:39
11 Back In My Life (Interlude) 1:59
12 Happiness 3:46
13 I Can Make Ya Feel 3:30
14 Precious Lord 4:20
Exact Audio Copy V0.99 prebeta 5 from 4. May 2009
EAC extraction logfile from 28. June 2011, 0:21
Berget Lewis / Finally
Used drive : MATSHITADVD-RAM UJ-832S Adapter: 0 ID: 1
Read mode : Secure
Utilize accurate stream : Yes
Defeat audio cache : Yes
Make use of C2 pointers : No
Read offset correction : 102
Overread into Lead-In and Lead-Out : No
Fill up missing offset samples with silence : Yes
Delete leading and trailing silent blocks : No
Null samples used in CRC calculations : Yes
Used interface : Native Win32 interface for Win NT & 2000
Used output format : Internal WAV Routines
Sample format : 44.100 Hz; 16 Bit; Stereo
TOC of the extracted CD
Track | Start | Length | Start sector | End sector
---------------------------------------------------------
1 | 0:00.00 | 0:37.25 | 0 | 2799
2 | 0:37.25 | 3:14.49 | 2800 | 17398
3 | 3:51.74 | 4:40.71 | 17399 | 38469
4 | 8:32.70 | 3:22.23 | 38470 | 53642
5 | 11:55.18 | 3:45.73 | 53643 | 70590
6 | 15:41.16 | 2:50.16 | 70591 | 83356
7 | 18:31.32 | 3:34.19 | 83357 | 99425
8 | 22:05.51 | 4:05.29 | 99426 | 117829
9 | 26:11.05 | 3:33.22 | 117830 | 133826
10 | 29:44.27 | 3:39.13 | 133827 | 150264
11 | 33:23.40 | 1:59.33 | 150265 | 159222
12 | 35:22.73 | 3:46.06 | 159223 | 176178
13 | 39:09.04 | 3:30.62 | 176179 | 191990
14 | 42:39.66 | 4:20.03 | 191991 | 211493
Range status and errors
Selected range
Filename C:Berget Lewis - Finally Berget Lewis - Finally.wav
Peak level 99.9 %
Range quality 100.0 %
Test CRC 8224D2DB
Copy CRC 8224D2DB
Copy OK
No errors occurred
AccurateRip summary
Track 1 not present in database
Track 2 not present in database
Track 3 not present in database
Track 4 not present in database
Track 5 not present in database
Track 6 not present in database
Track 7 not present in database
Track 8 not present in database
Track 9 not present in database
Track 10 not present in database
Track 11 not present in database
Track 12 not present in database
Track 13 not present in database
Track 14 not present in database
None of the tracks are present in the AccurateRip database
End of status report
FileSonic
Wupload



Alternative download links

DOWNLOAD

Related MP3 FLAC to Berget Lewis - Finally (2007)
Feedback
All rights reserved.
WEBBG.com © 2000-2018