Straight No Chaser - With A Twist (2010)
MP3 FLAC WMA APE HD

Straight No Chaser - With A Twist (2010)

Artist: Straight No Chaser
Title Of Album: With A Twist
Year Of Release: 2010
Genre: Acapella, Jazz, Pop
Quality: FLAC (*.flac)
Bitrate: lossless
Total Time: 39:40
Total Size: 239 mb
Tracklist:
01. I'm Yours / Somewhere Over The Rainbow (3:33)
02. Tainted Love (2:56)
03. Don't Dream It's Over (3:17)
04. Fix You (4:06)
05. You're My Best Friend (2:11)
06. The Living Years (4:07)
07. You & Me & The Bottle Makes Three/Single Ladies (2:41)
08. Wonderwall (2:52)
09. Joy To The World (2:25)
10. Under The Bridge (3:13)
11. Can't Take My Eyes Off Of You (3:26)
12. One Voice [feat. Barry Manilow] (2:30)
Exact Audio Copy V0.99 prebeta 4 from 23. January 2008
Отчёт EAC об извлечении, выполненном 13. апреля 2010, 20:39
Straight No Chaser / With A Twist
Дисковод: PLEXTOR DVDR PX-880SA Adapter: 1 ID: 1
Режим чтения : Достоверность
Использование точного потока : Да
Отключение кэша аудио : Да
Использование указателей C2 : Нет
Коррекция смещения при чтении : 6
Способность читать области Lead-in и Lead-out : Нет
Заполнение пропущенных сэмплов тишиной : Да
Удаление блоков с тишиной в начале и конце : Нет
При вычислениях CRC использовались нулевые сэмплы : Да
Интерфейс : Установленный внешний ASPI-интерфейс
Выходной формат : Пользовательский кодировщик
Выбранный битрейт : 768 kBit/s
Качество : Высокий
Добавление ID3-тэга : Нет
Утилита сжатия : C:Program FilesExact Audio CopyFLACFLAC.EXE
Дополнительные параметры : -6 -V -T "ARTIST=%a" -T "TITLE=%t" -T "ALBUM=%g" -T "DATE=%y" -T "TRACKNUMBER=%n" -T "GENRE=%m" -T "COMMENT=%e" %s -o %d
TOC извлечённого CD
Трек | Старт | Длительность | Начальный сектор | Конечный сектор
---------------------------------------------------------------------
1 | 0:00.00 | 3:33.52 | 0 | 16026
2 | 3:33.52 | 2:56.32 | 16027 | 29258
3 | 6:30.09 | 3:17.61 | 29259 | 44094
4 | 9:47.70 | 4:06.53 | 44095 | 62597
5 | 13:54.48 | 2:11.10 | 62598 | 72432
6 | 16:05.58 | 4:07.12 | 72433 | 90969
7 | 20:12.70 | 2:41.49 | 90970 | 103093
8 | 22:54.44 | 2:52.28 | 103094 | 116021
9 | 25:46.72 | 2:25.57 | 116022 | 126953
10 | 28:12.54 | 3:13.60 | 126954 | 141488
11 | 31:26.39 | 3:26.30 | 141489 | 156968
12 | 34:52.69 | 2:30.74 | 156969 | 168292
13 | 39:55.68 | 11:48.54 | 179693 | 232846
Характеристики диапазона извлечения и сообщения об ошибках
Выбранный диапазон
Имя файла I:BitCometStraight No Chaser(flac)With A TwistStraight No Chaser - With A Twist.wav
Пиковый уровень 99.8 %
Качество диапазона 100.0 %
CRC копии 301CA92B
Копирование... OK
Ошибок не произошло
AccurateRip: сводка
Трек 1 нет в базе данных
Трек 2 нет в базе данных
Трек 3 нет в базе данных
Трек 4 нет в базе данных
Трек 5 нет в базе данных
Трек 6 нет в базе данных
Трек 7 нет в базе данных
Трек 8 нет в базе данных
Трек 9 нет в базе данных
Трек 10 нет в базе данных
Трек 11 нет в базе данных
Трек 12 нет в базе данных
Ни одного трека нет в базе AccurateRip
Конец отчёта




Alternative download links



Related MP3 FLAC to Straight No Chaser - With A Twist (2010)
Feedback
All rights reserved.
WEBBG.com © 2000-2018