Buddaheads - Wish I Had Everything I Want (2011)
MP3 FLAC WMA APE HD

Buddaheads - Wish I Had Everything I Want (2011)

Artist: Buddaheads
Title Of Album: Wish I Had Everything I Want
Year Of Release: 2011
Label: Wilshire Park Entertainment
Genre: Blues Rock
Quality: APE (image+.cue) + log
Bitrate: Lossless
Total Time: 1:11:30
Total Size: 424 Mb
"Wish I Had Everything I Want" - a new studio album in the style of Buddaheads Blues-Rock. Great album! Meet!
Tracklist:
01. Old John 123 [0:04:27.66]
02. Blink Of An Eye [0:04:53.37]
03. Goin Out Of My Mind [0:05:03.74]
04. Tattoo Girl [0:03:27.44]
05. Mountain Of Blues [0:07:12.78]
06. This Love Of Mine [0:04:53.65]
07. Head First Into The Wall [0:03:31.40]
08. You And Me [0:04:32.09]
09. No Part Of It [0:04:02.28]
10. Shell Never Know [0:05:01.58]
11. Jack Of All Trades [0:03:27.20]
12. Evil [0:05:29.78]
13. Trailer Queen [0:04:32.82]
14. Wish I Had Eeery Thing I Want [0:05:24.06]
15. Psychedelic Highway [0:05:30.44]
Exact Audio Copy V0.99 prebeta 4 from 23. January 2008
Отчёт EAC об извлечении, выполненном 3. августа 2011, 0:59
Buddaheads / Wish I Had Everything I Want
Дисковод: Optiarc DVD RW AD-7173A Adapter: 0 ID: 1
Режим чтения : Достоверность
Использование точного потока : Да
Отключение кэша аудио : Да
Использование указателей C2 : Нет
Коррекция смещения при чтении : 48
Способность читать области Lead-in и Lead-out : Нет
Заполнение пропущенных сэмплов тишиной : Да
Удаление блоков с тишиной в начале и конце : Нет
При вычислениях CRC использовались нулевые сэмплы : Да
Интерфейс : Встроенный Win32-интерфейс для Win NT/2000
Выходной формат : Внутренние WAV-операции
Формат сэмплов : 44.100 Гц; 16 бит; стерео
TOC извлечённого CD
Трек | Старт | Длительность | Начальный сектор | Конечный сектор
---------------------------------------------------------------------
1 | 0:00.00 | 4:27.50 | 0 | 20074
2 | 4:27.50 | 4:53.28 | 20075 | 42077
3 | 9:21.03 | 5:03.56 | 42078 | 64858
4 | 14:24.59 | 3:27.33 | 64859 | 80416
5 | 17:52.17 | 7:12.59 | 80417 | 112875
6 | 25:05.01 | 4:53.49 | 112876 | 134899
7 | 29:58.50 | 3:31.30 | 134900 | 150754
8 | 33:30.05 | 4:32.07 | 150755 | 171161
9 | 38:02.12 | 4:02.21 | 171162 | 189332
10 | 42:04.33 | 5:01.44 | 189333 | 211951
11 | 47:06.02 | 3:27.15 | 211952 | 227491
12 | 50:33.17 | 5:29.59 | 227492 | 252225
13 | 56:03.01 | 4:32.62 | 252226 | 272687
14 | 60:35.63 | 5:24.05 | 272688 | 296992
15 | 65:59.68 | 5:30.33 | 296993 | 321775
Характеристики диапазона извлечения и сообщения об ошибках
Выбранный диапазон
Имя файла E:Новая папкаBuddaheads - Wish I Had Everything I Want.wav
Пиковый уровень 100.0 %
Качество диапазона 100.0 %
CRC теста 43FF7F84
CRC копии 43FF7F84
Копирование... OK
Ошибок не произошло
AccurateRip: сводка
Трек 1 нет в базе данных
Трек 2 нет в базе данных
Трек 3 нет в базе данных
Трек 4 нет в базе данных
Трек 5 нет в базе данных
Трек 6 нет в базе данных
Трек 7 нет в базе данных
Трек 8 нет в базе данных
Трек 9 нет в базе данных
Трек 10 нет в базе данных
Трек 11 нет в базе данных
Трек 12 нет в базе данных
Трек 13 нет в базе данных
Трек 14 нет в базе данных
Трек 15 нет в базе данных
Ни одного трека нет в базе AccurateRip
Конец отчёта
FileSonic
Wupload



Alternative download links

DOWNLOAD

Related MP3 FLAC to Buddaheads - Wish I Had Everything I Want (2011)
Feedback
All rights reserved.
WEBBG.com © 2000-2018