S L - Time Machine (2004)
MP3 FLAC WMA APE HD

S L - Time Machine (2004)

Artist: S & L
Title Of Album: Time Machine
Year Of Release: 2004
Label: MALS
Genre: progressive rock, symphonic
Quality: FLAC (tracks+.cue) + log
Bitrate: Lossless
Total Time: 47:32
Total Size: 419 Mb
The second S&L effort is in every respect mush more a mature album than the band's first output. In addition, it is very well produced. If each song here had as many distinct signs of originality and inventiveness as the last four, I would've been doubtless to rate "Time Machine" as a masterpiece.
Tracklist:
1. Time Machine 5:08
2. Faithless Breed 5:28
3. My Friend My Enemy 6:40
4. Runaway 4:20
5. Noise 4:58
6. A Different Man I 6:46
7. A Different Man II 7:48
8. Landscape 6:24
Exact Audio Copy V1.0 beta 1 from 15. November 2010
EAC extraction logfile from 15. August 2011, 20:39
S & L / Time Machine
Used drive : _NEC DVD_RW ND-4571A Adapter: 3 ID: 0
Read mode : Secure
Utilize accurate stream : Yes
Defeat audio cache : Yes
Make use of C2 pointers : No
Read offset correction : 48
Overread into Lead-In and Lead-Out : No
Fill up missing offset samples with silence : Yes
Delete leading and trailing silent blocks : No
Null samples used in CRC calculations : Yes
Used interface : Native Win32 interface for Win NT & 2000
Gap handling : Appended to previous track
Used output format : Internal WAV Routines
Sample format : 44.100 Hz; 16 Bit; Stereo
TOC of the extracted CD
Track | Start | Length | Start sector | End sector
---------------------------------------------------------
1 | 0:00.00 | 5:08.35 | 0 | 23134
2 | 5:08.35 | 5:28.00 | 23135 | 47734
3 | 10:36.35 | 6:40.00 | 47735 | 77734
4 | 17:16.35 | 4:20.00 | 77735 | 97234
5 | 21:36.35 | 4:58.00 | 97235 | 119584
6 | 26:34.35 | 6:46.00 | 119585 | 150034
7 | 33:20.35 | 7:48.00 | 150035 | 185134
8 | 41:08.35 | 6:24.00 | 185135 | 213934
Track 1
Filename D:vknish1 - Time Machine.wav
Pre-gap length 0:00:02.00
Peak level 100.0 %
Extraction speed 2.7 X
Track quality 99.9 %
Test CRC 1ED42971
Copy CRC 1ED42971
Accurately ripped (confidence 1) [0A86B74D]
Copy OK
Track 2
Filename D:vknish2 - Fathless Breed.wav
Pre-gap length 0:00:02.00
Peak level 100.0 %
Extraction speed 3.5 X
Track quality 100.0 %
Test CRC E9C4B795
Copy CRC E9C4B795
Accurately ripped (confidence 1) [F736E58D]
Copy OK
Track 3
Filename D:vknish3 - My Friend My Enemy.wav
Pre-gap length 0:00:02.00
Peak level 100.0 %
Extraction speed 4.0 X
Track quality 100.0 %
Test CRC 422FAE17
Copy CRC 422FAE17
Accurately ripped (confidence 1) [025CE60D]
Copy OK
Track 4
Filename D:vknish4 - Runaway.wav
Pre-gap length 0:00:02.00
Peak level 100.0 %
Extraction speed 3.7 X
Track quality 99.9 %
Test CRC AE50A135
Copy CRC AE50A135
Accurately ripped (confidence 1) [C985135D]
Copy OK
Track 5
Filename D:vknish5 - Noise.wav
Pre-gap length 0:00:02.00
Peak level 100.0 %
Extraction speed 4.5 X
Track quality 100.0 %
Test CRC C442AFB1
Copy CRC C442AFB1
Accurately ripped (confidence 1) [C7D66757]
Copy OK
Track 6
Filename D:vknish6 - A Different Man Part I.wav
Pre-gap length 0:00:02.00
Peak level 100.0 %
Extraction speed 4.9 X
Track quality 100.0 %
Test CRC 3422D5C7
Copy CRC 3422D5C7
Accurately ripped (confidence 1) [2F7DDDEC]
Copy OK
Track 7
Filename D:vknish7 - A Different Man Part II.wav
Peak level 100.0 %
Extraction speed 5.4 X
Track quality 100.0 %
Test CRC 9F294F84
Copy CRC 9F294F84
Accurately ripped (confidence 1) [C9A43DED]
Copy OK
Track 8
Filename D:vknish8 - Landscape (Sunrise & Sunset).wav
Pre-gap length 0:00:02.00
Peak level 100.0 %
Extraction speed 2.3 X
Track quality 99.6 %
Test CRC 655F691A
Copy CRC 655F691A
Accurately ripped (confidence 1) [910711C2]
Copy OK
All tracks accurately ripped
No errors occurred
End of status report
FileSonic
Wupload



Alternative download links

DOWNLOAD

Related MP3 FLAC to S L - Time Machine (2004)
Feedback
All rights reserved.
WEBBG.com © 2000-2018