Lee Ritenour - Rits House (2002)
MP3 FLAC WMA APE HD

Lee Ritenour - Rits House (2002)

Artist: Lee Ritenour
Title Of Album: Rit's House
Year Of Release: 2002
Label: Verve Music Group / GrP
Genre: Contemporary Jazz, Smooth Jazz
Quality: FLAC (tracks+.cue) + log
Bitrate: Lossless
Total Time: 1:02:09
Total Size: 468 Mb
Tracklist:
01. Module 105 - 4:32
02. '13' - 5:01
03. Mizrab - 5:27
04. 78th & 3rd - 5:38
05. Rit's House - 5:05
06. A Little Dolphin Dreamin' - 5:15
07. Every Little Thing She Does Is Magic - 4:03
08. Condor - 5:14
09. Olinda - 5:11
10. Night Owl - 6:24
11. Party Time - 4:20
12. Just Listen - 6:00
Exact Audio Copy V0.99 prebeta 5 from 4. May 2009
EAC extraction logfile from 20. November 2010, 21:56
Lee Ritenour / Rit's House
Used drive : HL-DT-STDVD-RAM GSA-H55N Adapter: 0 ID: 2
Read mode : Secure
Utilize accurate stream : Yes
Defeat audio cache : Yes
Make use of C2 pointers : No
Read offset correction : 102
Overread into Lead-In and Lead-Out : Yes
Fill up missing offset samples with silence : Yes
Delete leading and trailing silent blocks : No
Null samples used in CRC calculations : Yes
Used interface : Installed external ASPI interface
Gap handling : Appended to previous track
Used output format : User Defined Encoder
Selected bitrate : 128 kBit/s
Quality : High
Add ID3 tag : No
Command line compressor : G:Program FilesExact Audio CopyEncoderflac.exe
Additional command line options : -V -8 -T "Genre=%m" -T "Artist=%a" -T "Title=%t" -T "Album=%g" -T "Date=%y" -T "Tracknumber=%n" -T "Comment=EACpb5 -8" %s
TOC of the extracted CD
Track | Start | Length | Start sector | End sector
---------------------------------------------------------
1 | 0:00.00 | 4:31.50 | 0 | 20374
2 | 4:31.50 | 5:00.65 | 20375 | 42939
3 | 9:32.40 | 5:27.10 | 42940 | 67474
4 | 14:59.50 | 5:38.00 | 67475 | 92824
5 | 20:37.50 | 5:05.23 | 92825 | 115722
6 | 25:42.73 | 5:14.40 | 115723 | 139312
7 | 30:57.38 | 4:02.50 | 139313 | 157512
8 | 35:00.13 | 5:14.37 | 157513 | 181099
9 | 40:14.50 | 5:11.25 | 181100 | 204449
10 | 45:26.00 | 6:24.00 | 204450 | 233249
11 | 51:50.00 | 4:19.38 | 233250 | 252712
12 | 56:09.38 | 6:00.00 | 252713 | 279712
Track 1
Filename F:WAV1 - Module 105.wav
Pre-gap length 0:00:02.00
Peak level 100.0 %
Track quality 100.0 %
Test CRC B1EB7298
Copy CRC B1EB7298
Accurately ripped (confidence 9) [78F7A1C3]
Copy OK
Track 2
Filename F:WAV2 - '13'.wav
Peak level 100.0 %
Track quality 100.0 %
Test CRC 927F0EDB
Copy CRC 927F0EDB
Accurately ripped (confidence 9) [CA30B851]
Copy OK
Track 3
Filename F:WAV3 - Mizrab.wav
Peak level 100.0 %
Track quality 100.0 %
Test CRC 71560BF6
Copy CRC 71560BF6
Accurately ripped (confidence 9) [9D69EE16]
Copy OK
Track 4
Filename F:WAV4 - 78th & 3rd.wav
Pre-gap length 0:00:00.37
Peak level 100.0 %
Track quality 100.0 %
Test CRC 5C5D0BF9
Copy CRC 5C5D0BF9
Accurately ripped (confidence 9) [99748FD7]
Copy OK
Track 5
Filename F:WAV5 - Rit's House.wav
Peak level 100.0 %
Track quality 100.0 %
Test CRC 2AD3D009
Copy CRC 2AD3D009
Accurately ripped (confidence 9) [D9BE26F2]
Copy OK
Track 6
Filename F:WAV6 - A Little Dolphin Dreamin'.wav
Pre-gap length 0:00:00.48
Peak level 100.0 %
Track quality 100.0 %
Test CRC 251472AB
Copy CRC 251472AB
Accurately ripped (confidence 9) [8B4BCF90]
Copy OK
Track 7
Filename F:WAV7 - Every Little Thing She Does Is Magic.wav
Pre-gap length 0:00:00.13
Peak level 100.0 %
Track quality 100.0 %
Test CRC FBF6D0EC
Copy CRC FBF6D0EC
Accurately ripped (confidence 9) [DB5D75C4]
Copy OK
Track 8
Filename F:WAV8 - Condor.wav
Pre-gap length 0:00:01.00
Peak level 100.0 %
Track quality 100.0 %
Test CRC 89ED315E
Copy CRC 89ED315E
Accurately ripped (confidence 9) [E1832180]
Copy OK
Track 9
Filename F:WAV9 - Olinda.wav
Peak level 100.0 %
Track quality 100.0 %
Test CRC 4FE52972
Copy CRC 4FE52972
Accurately ripped (confidence 9) [42F0C819]
Copy OK
Track 10
Filename F:WAV10 - Night Owl.wav
Pre-gap length 0:00:00.50
Peak level 100.0 %
Track quality 100.0 %
Test CRC 68CA7DFE
Copy CRC 68CA7DFE
Accurately ripped (confidence 9) [93660436]
Copy OK
Track 11
Filename F:WAV11 - Party Time.wav
Pre-gap length 0:00:00.25
Peak level 100.0 %
Track quality 100.0 %
Test CRC 12B146FA
Copy CRC 12B146FA
Accurately ripped (confidence 9) [C88AF63B]
Copy OK
Track 12
Filename F:WAV12 - Just Listen.wav
Pre-gap length 0:00:00.25
Peak level 86.9 %
Track quality 100.0 %
Test CRC D8BDF667
Copy CRC D8BDF667
Accurately ripped (confidence 9) [20B522E7]
Copy OK
All tracks accurately ripped
No errors occurred
End of status report
FileSonic.com
Turbobit.net



Alternative download links

DOWNLOAD

Related MP3 FLAC to Lee Ritenour - Rits House (2002)
Feedback
All rights reserved.
WEBBG.com © 2000-2018