Taj Mahal - Phantom Blues (1996)
MP3 FLAC WMA APE HD

Taj Mahal - Phantom Blues (1996)

  • Genre: Music, Blues, FLAC / APE
  • Formats: MP3 FLAC WMA HD APE
  • Album Size: 1398 mb.
  • Archive: ZIP RAR
Artist: Taj Mahal
Title Of Album: Phantom Blues
Year Of Release: 1996
Label: BMG
Genre: Blues
Quality: APE (image+.cue) + log
Bitrate: Lossless
Total Time: 47:58.00
Total Size: 349 Mb
Henry Saint Clair Fredericks , who uses the stage name Taj Mahal, is an internationally recognized blues musician with two Grammy Awards to date who folds various forms of world music into his offerings.
Tracklist:
01. Lovin' In My Baby's Eyes [0:02:42.50]
02. Cheatin' On You [0:03:22.13]
03. The Hustle Is On [0:02:41.62]
04. Here In The Dark [0:03:10.38]
05. Fanning The Flames [0:04:50.25]
06. I Need Your Loving [0:03:01.57]
07. Ooh Poo Pah Doo [0:04:01.68]
08. Lonely Avenue [0:03:30.00]
09. Don't Tell Me [0:03:48.17]
10. What Am I Living For? [0:02:46.50]
11. We're Gonna Make It [0:02:52.00]
12. Let The Four Winds Blow [0:03:12.70]
13. (You've Got To) Love Her With A Feeling [0:03:48.05]
14. The Car Of Your Dreams [0:04:08.70]
Exact Audio Copy V0.99 prebeta 5 from 4. May 2009
Отчёт EAC об извлечении, выполненном 23. июля 2011, 15:26
Taj Mahal / Phantom Blues
Дисковод: TEAC CD-W552G Adapter: 3 ID: 1
Режим чтения : Достоверность
Использование точного потока : Да
Отключение кэша аудио : Да
Использование указателей C2 : Нет
Коррекция смещения при чтении : 6
Способность читать области Lead-in и Lead-out : Нет
Заполнение пропущенных сэмплов тишиной : Да
Удаление блоков с тишиной в начале и конце : Нет
При вычислениях CRC использовались нулевые сэмплы : Да
Интерфейс : Установленный внешний ASPI-интерфейс
Выходной формат : Внутренние WAV-операции
Формат сэмплов : 44.100 Гц; 16 бит; стерео
TOC извлечённого CD
Трек | Старт | Длительность | Начальный сектор | Конечный сектор
---------------------------------------------------------------------
1 | 0:00.32 | 2:42.50 | 32 | 12231
2 | 2:43.07 | 3:22.13 | 12232 | 27394
3 | 6:05.20 | 2:41.62 | 27395 | 39531
4 | 8:47.07 | 3:10.38 | 39532 | 53819
5 | 11:57.45 | 4:50.25 | 53820 | 75594
6 | 16:47.70 | 3:01.57 | 75595 | 89226
7 | 19:49.52 | 4:01.68 | 89227 | 107369
8 | 23:51.45 | 3:30.00 | 107370 | 123119
9 | 27:21.45 | 3:48.17 | 123120 | 140236
10 | 31:09.62 | 2:46.50 | 140237 | 152736
11 | 33:56.37 | 2:52.00 | 152737 | 165636
12 | 36:48.37 | 3:12.70 | 165637 | 180106
13 | 40:01.32 | 3:48.05 | 180107 | 197211
14 | 43:49.37 | 4:08.70 | 197212 | 215881
Характеристики диапазона извлечения и сообщения об ошибках
Выбранный диапазон
Имя файла D:MusicCDTorrentTaj Mahal - Phantom BluesTaj Mahal - Phantom Blues.wav
Пиковый уровень 99.0 %
Качество диапазона 99.9 %
CRC теста 5FFBE151
CRC копии 5FFBE151
Копирование... OK
Ошибок не произошло
AccurateRip: сводка
Трек 1 точное извлечение (доверие 11) [CF138801]
Трек 2 точное извлечение (доверие 11) [ACD9F617]
Трек 3 точное извлечение (доверие 11) [F5BAEA7F]
Трек 4 точное извлечение (доверие 11) [CF521260]
Трек 5 точное извлечение (доверие 10) [7EC56D2A]
Трек 6 точное извлечение (доверие 11) [24E5F08F]
Трек 7 точное извлечение (доверие 11) [C74FE68B]
Трек 8 точное извлечение (доверие 11) [09D561AD]
Трек 9 точное извлечение (доверие 11) [437251E6]
Трек 10 точное извлечение (доверие 11) [A888044D]
Трек 11 точное извлечение (доверие 11) [AB46670C]
Трек 12 точное извлечение (доверие 11) [89677B35]
Трек 13 точное извлечение (доверие 11) [7F5AA26D]
Трек 14 точное извлечение (доверие 11) [C2D48F8A]
Все треки извлечены точно
Конец отчёта
FileSonic
Wupload



Alternative download links

DOWNLOAD

Related MP3 FLAC to Taj Mahal - Phantom Blues (1996)
Feedback
All rights reserved.
WEBBG.com © 2000-2018