VA - Chill Out Cafe: The best
MP3 FLAC WMA APE HD

VA - Chill Out Cafe: The best

Artist: VA
Title Of Album: VA - Chill Out Cafe: The best
Year Of Release: Dec 11, 2006
Label: Phantom Sound
Genre: Chill Out, Lounge
Quality: FLAC
Bitrate: lossless image+CUE +LOG +COVERS
Total Size: 882,31 Mb
Tracklist:
CD1
101. Tameka Starr - Going in circles (Dj Art version)
102. LTJ Xperience - Feel my soul
103. Chiaroscuro - Despues
104. Belladonna - Meltin guitar
105. Poggi & Morettini - Growin inside a plastic box
106. Black Nighty Wax - Blue tequila
107. Jerome van Rossum - Nublado (orange factory mix)
108. Haga - So beautiful
109. Gazzara - Gato
110. Dj Rodriguez - Such a joy to see you
111. Bossa nostra feat. Bruna Loppez - Inverno
112. Nemo - Your Love
Exact Audio Copy V0.99 prebeta 4 from 23. January 2008
Отчёт EAC об извлечении, выполненном 20. апреля 2009, 7:31
Various / VA - Chill Out Cafe CD-1 The Best
Дисковод: Optiarc DVD RW AD-7191S Adapter: 2 ID: 0
Режим чтения : Достоверность
Использование точного потока : Да
Отключение кэша аудио : Да
Использование указателей C2 : Нет
Коррекция смещения при чтении : 6
Способность читать области Lead-in и Lead-out : Нет
Заполнение пропущенных сэмплов тишиной : Да
Удаление блоков с тишиной в начале и конце : Нет
При вычислениях CRC использовались нулевые сэмплы : Да
Интерфейс : Установленный внешний ASPI-интерфейс
Выходной формат : Внутренние WAV-операции
Формат сэмплов : 44.100 Гц; 16 бит; стерео
TOC извлечённого CD
Трек | Старт | Длительность | Начальный сектор | Конечный сектор
---------------------------------------------------------------------
1 | 0:00.00 | 5:32.38 | 0 | 24937
2 | 5:32.38 | 5:21.37 | 24938 | 49049
3 | 10:54.00 | 4:26.19 | 49050 | 69018
4 | 15:20.19 | 6:51.63 | 69019 | 99906
5 | 22:12.07 | 5:36.31 | 99907 | 125137
6 | 27:48.38 | 5:55.18 | 125138 | 151780
7 | 33:43.56 | 6:44.19 | 151781 | 182099
8 | 40:28.00 | 6:20.19 | 182100 | 210618
9 | 46:48.19 | 5:23.56 | 210619 | 234899
10 | 52:12.00 | 4:24.00 | 234900 | 254699
11 | 56:36.00 | 4:52.00 | 254700 | 276599
12 | 61:28.00 | 4:19.35 | 276600 | 296059
Характеристики диапазона извлечения и сообщения об ошибках
Выбранный диапазон
Имя файла H:APEVA - Chill Out Cafe CD-1 The Best.wav
Пиковый уровень 100.0 %
Качество диапазона 100.0 %
CRC теста 8D09D564
CRC копии 8D09D564
Копирование... OK
Ошибок не произошло
Конец отчёта
CD2
201. Ohm Guru - Please please please
202. LTJ Experience - And I Love him
203. Gazzara - The spirit of summer (Jon Cutier ambient)
204. Soul Bossa Trio - Words of Love
205. Bossa Nostra feat. Bruna Loppez - Jackie (East West Connection twisted bossamix)
206. Le Berry - Message in the botte
207. Duran Y Garcia - Eternal Sun
208. Cybophonia & Cortesi - Harem oceano
209. Clan Greco - Avenida
210. Nu Braz - Donna
211. Palmyra & Levita with Aroldo Macedo - Rapunzei (preo rmx)
212. Orange Factory - Vergenta #9
Exact Audio Copy V0.99 prebeta 4 from 23. January 2008
Отчёт EAC об извлечении, выполненном 20. апреля 2009, 9:21
Various / VA - Chill Out Cafe CD-2 The Best
Дисковод: Optiarc DVD RW AD-7191S Adapter: 2 ID: 0
Режим чтения : Достоверность
Использование точного потока : Да
Отключение кэша аудио : Да
Использование указателей C2 : Нет
Коррекция смещения при чтении : 6
Способность читать области Lead-in и Lead-out : Нет
Заполнение пропущенных сэмплов тишиной : Да
Удаление блоков с тишиной в начале и конце : Нет
При вычислениях CRC использовались нулевые сэмплы : Да
Интерфейс : Установленный внешний ASPI-интерфейс
Выходной формат : Внутренние WAV-операции
Формат сэмплов : 44.100 Гц; 16 бит; стерео
TOC извлечённого CD
Трек | Старт | Длительность | Начальный сектор | Конечный сектор
---------------------------------------------------------------------
1 | 0:00.00 | 3:23.00 | 0 | 15224
2 | 3:23.00 | 5:41.00 | 15225 | 40799
3 | 9:04.00 | 5:56.38 | 40800 | 67537
4 | 15:00.38 | 6:19.37 | 67538 | 95999
5 | 21:20.00 | 6:54.00 | 96000 | 127049
6 | 28:14.00 | 5:42.00 | 127050 | 152699
7 | 33:56.00 | 6:01.38 | 152700 | 179812
8 | 39:57.38 | 8:02.37 | 179813 | 215999
9 | 48:00.00 | 4:46.47 | 216000 | 237496
10 | 52:46.47 | 4:50.00 | 237497 | 259246
11 | 57:36.47 | 4:20.28 | 259247 | 278774
12 | 61:57.00 | 5:38.43 | 278775 | 304167
Характеристики диапазона извлечения и сообщения об ошибках
Выбранный диапазон
Имя файла H:APEVA - Chill Out Cafe CD-2 The Best.wav
Пиковый уровень 100.0 %
Качество диапазона 100.0 %
CRC теста 713C8048
CRC копии 713C8048
Копирование... OK
Ошибок не произошло
Конец отчёта
Download VA - Chill Out Cafe: The best :
turbobit.net:
hotfile.com
" Sale Accounts by Rapidshare.com for 5 WMZ. Write in PM "
Rapidshare:
Pass: israbox.download
Thanks to the original Publicist "$Bad$"



Alternative download links



Related MP3 FLAC to VA - Chill Out Cafe: The best
Feedback
All rights reserved.
WEBBG.com © 2000-2018