Kaori - Flow (2007)
MP3 FLAC WMA APE HD

Kaori - Flow (2007)

Free download links


Kaori - Flow (2007) .zip
MP3 version ZIP archive

1296 downloads at 30 mb/s

Kaori - Flow (2007) .zip
FLAC/APE version ZIP archive

943 downloads at 22 mb/s
Artist: Kaori
Title Of Album: Flow
Year Of Release: 2007
Label: TME/World Club Music
Genre: Lo-Fi, Downtempo, Easy Listening, Nu Jazz
Quality: APE (Img,cue,log,scans)|MP3
Bitrate: lossless | 320kbps
Total Time: 42:00 min
Total Size: 317 mb/125 mb
TRACKLIST
01. Liquid Room [0:03:30.04]
02. Mawaru Sekal [0:04:03.07]
03. Night World [0:03:55.42]
04. Open Your Window [0:03:22.21]
05. Make Me Crazy [0:03:32.44]
06. Shiranai Sekai [0:03:37.49]
07. Time Liner [0:03:50.74]
08. Waving [0:03:45.46]
09. Bufferfly [0:04:36.54]
10. Cold Play [0:03:51.03]
11. Crusin' Pink Cadillac [0:03:54.47]
Exact Audio Copy V0.99 prebeta 5 from 4. May 2009
EAC extraction logfile from 25. October 2009, 19:03
Kaori / Flow
Used drive : Optiarc DVD RW AD-7203S Adapter: 3 ID: 0
Read mode : Secure
Utilize accurate stream : Yes
Defeat audio cache : No
Make use of C2 pointers : Yes
Read offset correction : 48
Overread into Lead-In and Lead-Out : No
Fill up missing offset samples with silence : Yes
Delete leading and trailing silent blocks : No
Null samples used in CRC calculations : Yes
Used interface : Installed external ASPI interface
Used output format : Monkey's Audio Lossless Encoder v3.99 DLL
Sample format : High Lossless Compression
Use compression offset : 0
TOC of the extracted CD
Track | Start | Length | Start sector | End sector
---------------------------------------------------------
1 | 0:00.00 | 3:30.04 | 0 | 15753
2 | 3:30.04 | 4:03.07 | 15754 | 33985
3 | 7:33.11 | 3:55.42 | 33986 | 51652
4 | 11:28.53 | 3:22.21 | 51653 | 66823
5 | 14:50.74 | 3:32.44 | 66824 | 82767
6 | 18:23.43 | 3:37.49 | 82768 | 99091
7 | 22:01.17 | 3:50.74 | 99092 | 116415
8 | 25:52.16 | 3:45.46 | 116416 | 133336
9 | 29:37.62 | 4:36.54 | 133337 | 154090
10 | 34:14.41 | 3:51.03 | 154091 | 171418
11 | 38:05.44 | 3:54.47 | 171419 | 189015
Range status and errors
Selected range
Filename H:AUDIO - IIKaori - Flow Kaori - Flow.ape
Peak level 100.0 %
Range quality 99.9 %
Copy CRC C90C0757
Copy OK
No errors occurred

AccurateRip summary

Track 1 not present in database
Track 2 not present in database
Track 3 not present in database
Track 4 not present in database
Track 5 not present in database
Track 6 not present in database
Track 7 not present in database
Track 8 not present in database
Track 9 not present in database
Track 10 not present in database
Track 11 not present in database

None of the tracks are present in the AccurateRip database
End of status report
Download




Alternative download links

Bitshare

Related MP3 FLAC to Kaori - Flow (2007)
Feedback
All rights reserved.
WEBBG.com © 2000-2018