Boney James - Contact (2011)
MP3 FLAC WMA APE HD

Boney James - Contact (2011)

Artist: Boney James
Title Of Album: Contact
Year Of Release: 2011
Label: Verve Forecast
Genre: Smooth Jazz
Quality: APE (image+.cue) + log
Bitrate: Lossless
Total Time: 44:56
Total Size: 276 Mb
Boney James, (born James Oppenheim, September 1, 1961 in Lowell, Massachusetts) is a saxophonist, songwriter and producer who popularized urban jazz (an updated version of contemporary jazz that contains elements of R&B and hip-hop). He is one of the most successful instrumental artists of our time, with sales totaling over 3 million records.
Tracklist:
01.Contact 3:51
02.Close To You (Ft Donell Jones) 4:15
03.Spin 4:20
04.When I Had The Chance (Ft Letoya Luckett) 4:06
05.Cry 4:09
06.That Look On Your Face (Ft Mario) 4:48
07.Deep Time 4:57
08.I'm Waiting (Ft Heather Headley) 4:13
09.There And Back 5:10
10. Everything Matters 5:00
Exact Audio Copy V0.99 prebeta 5 from 4. May 2009
Отчёт EAC об извлечении, выполненном 12. июня 2011, 10:55
Boney James / Contact
Дисковод: PIONEER DVD-RW DVR-215D Adapter: 3 ID: 0
Режим чтения : Достоверность
Использование точного потока : Да
Отключение кэша аудио : Да
Использование указателей C2 : Нет
Коррекция смещения при чтении : 48
Способность читать области Lead-in и Lead-out : Нет
Заполнение пропущенных сэмплов тишиной : Да
Удаление блоков с тишиной в начале и конце : Нет
При вычислениях CRC использовались нулевые сэмплы : Да
Интерфейс : Встроенный Win32-интерфейс для Win NT/2000
Выходной формат : Внутренние WAV-операции
Формат сэмплов : 44.100 Гц; 16 бит; стерео
TOC извлечённого CD
Трек | Старт | Длительность | Начальный сектор | Конечный сектор
---------------------------------------------------------------------
1 | 0:00.00 | 3:51.56 | 0 | 17380
2 | 3:51.56 | 4:15.62 | 17381 | 36567
3 | 8:07.43 | 4:20.49 | 36568 | 56116
4 | 12:28.17 | 4:06.58 | 56117 | 74624
5 | 16:35.00 | 4:09.42 | 74625 | 93341
6 | 20:44.42 | 4:48.36 | 93342 | 114977
7 | 25:33.03 | 4:57.54 | 114978 | 137306
8 | 30:30.57 | 4:13.44 | 137307 | 156325
9 | 34:44.26 | 5:10.37 | 156326 | 179612
10 | 39:54.63 | 5:00.64 | 179613 | 202176
Характеристики диапазона извлечения и сообщения об ошибках
Выбранный диапазон
Имя файла E:Boney James - Contact.wav
Пиковый уровень 98.8 %
Качество диапазона 99.9 %
CRC копии 596219DD
Копирование... OK
Ошибок не произошло
AccurateRip: сводка
Трек 1 точность не определена (достоверность 2) [40E61B2C], AccurateRip вернул [ECE60B0E]
Трек 2 точность не определена (достоверность 2) [8196FE32], AccurateRip вернул [DC01C69C]
Трек 3 точность не определена (достоверность 2) [E5DF8B54], AccurateRip вернул [E1B6DAA1]
Трек 4 точность не определена (достоверность 2) [883CCFAB], AccurateRip вернул [E8AE83E4]
Трек 5 точность не определена (достоверность 2) [2C1202FD], AccurateRip вернул [FC18BB4D]
Трек 6 точность не определена (достоверность 2) [CFE19871], AccurateRip вернул [2ECD376D]
Трек 7 точность не определена (достоверность 2) [DDA75B62], AccurateRip вернул [18974A52]
Трек 8 точность не определена (достоверность 2) [EDAE51C7], AccurateRip вернул [B3EE710F]
Трек 9 точность не определена (достоверность 2) [D5270BCB], AccurateRip вернул [E0876EAC]
Трек 10 точность не определена (достоверность 2) [1D60F788], AccurateRip вернул [A509360C]
Ни один трек не прошёл проверки на точность
В вашей базе может быть иной вариант штамповки диска
Конец отчёта
FileSonic
Wupload



Alternative download links

DOWNLOAD

Related MP3 FLAC to Boney James - Contact (2011)
Feedback
All rights reserved.
WEBBG.com © 2000-2018